Telecharger Clones [BLURAY 720p] French

(TRUEFRENCH = Vraie voix française)

Qualité BLURAY 720p | TRUEFRENCH | son DTS

Clones

Clones

Origine du film : Américain
Réalisateur : Jonathan Mostow
Acteurs : Bruce Willis, Radha Mitchell, Rosamund Pike
Genre : Science fiction
Durée : 1h25min
Date de sortie : 28 octobre 2009
Année de production : 2009
Titre Original : Surrogates
Distribué par : Walt Disney Studios Motion Pictures France
Note presse : Clones 2,7/5
Note spectateurs : Clones

; »>2,7/5 (6 908)
Bande annonce :

5a5ce701b16aec1a7788006047d5a445

18915190″>Cliquez-ici pour voir la bande annonce 5a5ce701b16aec1a7788006047d5a445″> 18915190

5a5ce701b16aec1a7788006047d5a445

Clones

Deux agents du FBI enquêtent sur le meurtre mystérieux d’un étudiant, qui semble lié à l’homme qui a contribué à mettre au point une invention qui s’est imposée dans toute la société : les gens peuvent désormais acheter des versions robotisées d’eux-mêmes, des doubles sans défaut qui, commandés à distance, effectuent leurs tâches à leur place et leur permettent de vivre par procuration sans quitter le confort et la sécurité de leur domicile. Cette révolution technologique soulève beaucoup de questions, dont la première va vite devenir préoccupante : dans un monde d’apparences qui est réel, à qui peut-on faire confiance ?
80610″ style= »display:inline; »>

Clones

Format : MKV

Clones

Clones.2009.FRENCH.720p.BluRay.DTS.x264-Ganesh

(7350 Mo)

[Liens Interchangeables entre hébergeurs: 7x 1000 Mo + 1x 350 Mo]

Uptobox
Télécharger

Uploaded
Télécharger

TurboBit
Télécharger

Rapidgator
Télécharger

Uplea
Télécharger

1fichier
Télécharger

[Liens Premium ]

Uptobox
Télécharger

Uploaded
Télécharger

TurboBit
Télécharger

Uplea
Télécharger

1fichier
Télécharger

NFO :

Afficher / Masquer le texte 8f656c591ac2f0b0d0ae41ecbab88002″ class= »text_spoiler » style= »display:none; »>
Video
ID : 1
Format : AVC
Format/Info : Advanced Video Codec
Format profile : [email protected]
Format settings, CABAC : Yes
Format settings, ReFrames : 4 frames
Codec ID : V_MPEG4/ISO/AVC
Duration : 1h 28mn
Bit rate : 10.1 Mbps
Width : 1 280 pixels
Height : 534 pixels
Display aspect ratio : 2.40:1
Frame rate mode : Variable
Frame rate : 23.976 fps
Color space : YUV
Chroma subsampling : 4:2:0
Bit depth : 8 bits
Scan type : Progressive
Bits/(Pixel*Frame) : 0.614
Stream size : 6.23 GiB (85%)
Writing library : x264 core 125
Encoding settings : cabac=1 / ref=4 / deblock=1:-3:-3 / analyse=0x1:0x111 / me=umh / subme=8 / psy=1 / psy_rd=1,00:0,00 / mixed_ref=1 / me_range=32 / chroma_me=1 / trellis=0 / 8x8dct=0 / cqm=0 / deadzone=21,11 / fast_pskip=1 / chroma_qp_offset=-2 / threads=12 / lookahead_threads=2 / sliced_threads=0 / nr=0 / decimate=1 / interlaced=0 / bluray_compat=0 / constrained_intra=0 / bframes=3 / b_pyramid=2 / b_adapt=1 / b_bias=0 / direct=1 / weightb=1 / open_gop=0 / weightp=1 / keyint=240 / keyint_min=24 / scenecut=40 / intra_refresh=0 / rc_lookahead=10 / rc=crf / mbtree=1 / crf=14,0 / qcomp=0,60 / qpmin=3 / qpmax=69 / qpstep=4 / ip_ratio=1,40 / aq=1:1,00
Language : English
Default : Yes
Forced : No
Color primaries : BT.709-5, BT.1361, IEC 61966-2-4, SMPTE RP177
Transfer characteristics : BT.709-5, BT.1361
Matrix coefficients : BT.709-5, BT.1361, IEC 61966-2-4 709, SMPTE RP177

Audio
ID : 2
Format : DTS
Format/Info : Digital Theater Systems
Codec ID : A_DTS
Duration : 1h 28mn
Bit rate mode : Constant
Bit rate : 1 510 Kbps
Channel(s) : 6 channels
Channel positions : Front: L C R, Side: L R, LFE
Sampling rate : 48.0 KHz
Bit depth : 24 bits
Compression mode : Lossy
Stream size : 957 MiB (13%)
Default : Yes
Forced : No