Telecharger Cluedo [DVDRiP] French

Qualité BLURAY 720p | TRUEFRENCH

Cluedo

Cluedo

Origine du film : Américain
Réalisateur : Jonathan Lynn
Acteurs : Tim Curry, Christopher Lloyd, Eileen Brennan
Genre : Comédie, Policier
Durée : 1h34min
Année de production : 1985
Titre Original : Clue
Note spectateurs : Cluedo 3,7/5 (192)
Bande annonce :

6c861a893077a45b1f4044165cd647e2

19542159″>Cliquez-ici pour voir la bande annonce 6c861a893077a45b1f4044165cd647e2″> 19542159

6c861a893077a45b1f4044165cd647e2

Cluedo

L’adaptation du célèbre jeu de société. Six personnes sont invitées à passer une soirée dans un manoir. Six meurtres sont commis. L’inspecteur Butler enquête pour attribuer à chaque invité le meurtre qu’il a commis.
13858″ style= »display:inline; »>

Cluedo

Format : x264
Découpé avec : Winrar

Cluedo

Cluedo.1985.TRUEFRENCH.720p.x264-MorphisM

(3291 Mo)

[Liens Interchangeables entre hébergeurs: 3x 1000 Mo + 1x 291 Mo]

Uptobox
Télécharger

Uplea
Télécharger

1fichier
Télécharger

Uploaded
Télécharger

Rapidgator
Télécharger

TurboBit
Télécharger

[Liens Interchangeables entre hébergeurs: 3x 1000 Mo + 1x 291 Mo]

Uptobox
Télécharger

Uplea
Télécharger

1fichier
Télécharger

Uploaded
Télécharger

Rapidgator
Télécharger

TurboBit
Télécharger

NFO :

Afficher / Masquer le texte 0ebc349a53318d660ca4ed036c2f81ee » class= »text_spoiler » style= »display:none; »>General
Complete name : Cluedo.1985.TRUEFRENCH.720p.x264-MorphisM-www.Zone-Telechargement.com.mp4
Format : MPEG-4
Format profile : Base Media
Codec ID : isom
File size : 3.21 GiB
Duration : 1h 36mn
Overall bit rate : 4 751 Kbps
Writing application : Lavf54.63.104

Video
ID : 1
Format : AVC
Format/Info : Advanced Video Codec
Format profile : [email protected]
Format settings, CABAC : Yes
Format settings, ReFrames : 5 frames
Codec ID : avc1
Codec ID/Info : Advanced Video Coding
Duration : 1h 36mn
Duration_FirstFrame : 125ms
Bit rate : 4 615 Kbps
Width : 1 280 pixels
Height : 720 pixels
Display aspect ratio : 16:9
Frame rate mode : Constant
Frame rate : 23.976 fps
Color space : YUV
Chroma subsampling : 4:2:0
Bit depth : 8 bits
Scan type : Progressive
Bits/(Pixel*Frame) : 0.209
Stream size : 3.12 GiB (97%)
Writing library : x264 core 125 r2200 999b753
Encoding settings : cabac=1 / ref=5 / deblock=1:0:0 / analyse=0x3:0x113 / me=umh / subme=8 / psy=1 / psy_rd=1.00:0.00 / mixed_ref=1 / me_range=16 / chroma_me=1 / trellis=1 / 8x8dct=1 / cqm=0 / deadzone=21,11 / fast_pskip=1 / chroma_qp_offset=-2 / threads=12 / lookahead_threads=2 / sliced_threads=0 / nr=0 / decimate=1 / interlaced=0 / bluray_compat=0 / constrained_intra=0 / bframes=3 / b_pyramid=2 / b_adapt=2 / b_bias=0 / direct=3 / weightb=1 / open_gop=0 / weightp=2 / keyint=240 / keyint_min=24 / scenecut=40 / intra_refresh=0 / rc_lookahead=50 / rc=2pass / mbtree=1 / bitrate=4615 / ratetol=1.0 / qcomp=0.60 / qpmin=0 / qpmax=69 / qpstep=4 / cplxblur=20.0 / qblur=0.5 / ip_ratio=1.40 / aq=1:1.00

Audio
ID : 2
Format : AAC
Format/Info : Advanced Audio Codec
Format profile : LC
Codec ID : 40
Duration : 1h 36mn
Bit rate mode : Constant
Bit rate : 128 Kbps
Channel(s) : 2 channels
Channel positions : Front: L R
Sampling rate : 48.0 KHz
Compression mode : Lossy
Stream size : 88.4 MiB (3%)
Language : French

Jeux Gratuit
15354131_1854970838071206_1069261547_o.png