Telecharger Coeur d'encre [BLURAY 720p] French

BLURAY 720p | FRENCH

Coeur d'encre

Coeur d'encre

Coeur d'encre

Origine du film : Britannique, allemand, américain
Réalisateur : Iain Softley
Acteurs : Brendan Fraser, Paul Bettany, Helen Mirren
Genre : Fantastique, Famille, Aventure
Durée : 1h47min
Date de sortie : 28 janvier 2009
Année de production : 2008
Titre Original : Inkheart
Distribué par : Metropolitan FilmExport
Note presse : Coeur d'encre 3,3/5
Note spectateurs : Coeur d'encre

; »>2,6/5 (1 067)
Bande annonce :

8def33d3d8bb9ee9928133b4e1e2cffe

19450865″>Cliquez-ici pour voir la bande annonce 8def33d3d8bb9ee9928133b4e1e2cffe »> 19450865

8def33d3d8bb9ee9928133b4e1e2cffe

Coeur d'encre

Depuis la disparition de sa mère il y a neuf ans, Meggie voyage sans cesse avec son père Mo. Celui-ci ne tient pas en place et trouve toujours un prétexte pour changer d'endroit. Mo a en effet un secret qu'il n'a jamais révélé à sa fille : il possède un extraordinaire pouvoir, celui de donner vie aux personnages des livres qu'il lit à haute voix. Il y a neuf ans, il a eu le malheur de lire Coeur d'encre, et une bande de personnages mortellement dangereux, dont le redoutable bandit Capricorne et un jongleur cracheur de feu nommé Doigt de poussière, a surgi… Plus terrifiant encore, tandis que la troupe de malfrats prenait vie, la femme de Mo a disparu dans le livre ! Mo s'est juré de ne plus jamais lire à haute voix. Et depuis, il fuit les personnages auxquels il a donné vie malgré lui, essayant de protéger le livre qui est son dernier espoir de retrouver la mère de Meggie. 43549″ style= »display:inline; »>

Qualité : BLURAY 720p
Format : MKV
Langue : Français
Découpé avec : Winrar
Nombre de fichiers : 5 Fichiers
Taille des fichiers : 1000 Mo 474 Mo

[5 Liens Interchangeables : 4 x 1000 Mo 1 x 474 Mo]

Inkheart.720p.FRENCH.BluRay.x264-ForceBleue ( 4474 Mo)

1fichier
Télécharger

Uptobox
Télécharger

Uploaded
Télécharger

Rapidgator
Télécharger

TurboBit
Télécharger

[1 Lien PREMIUM : 1 x 4.37 GB]

1fichier
Télécharger

Uptobox
Télécharger

Uploaded
Télécharger

TurboBit
Télécharger

NFO :

Afficher / Masquer le texte f7e839b0f927480d4443ecae587fe195″ class= »text_spoiler » style= »display:none; »>General
Complete name : Inkheart.720p.FRENCH.BluRay.x264-ForceBleue.mkv
Format : Matroska
Format version : Version 2
File size : 4.37 GiB
Duration : 1h 46mn
Overall bit rate : 5 901 Kbps
Encoded date : UTC 2009-06-06 08:10:18
Writing application : mkvmerge v2.7.0 ('Do It Again') built on Apr 15 2009 00:27:10
Writing library : libebml v0.7.7 libmatroska v0.8.1

Video
ID : 1
Format : AVC
Format/Info : Advanced Video Codec
Format profile : [email protected]
Format settings, CABAC : Yes
Format settings, ReFrames : 5 frames
Format settings, GOP : N=1
Codec ID : V_MPEG4/ISO/AVC
Duration : 1h 46mn
Bit rate : 5 262 Kbps
Width : 1 280 pixels
Height : 544 pixels
Display aspect ratio : 2.35:1
Frame rate : 23.976 fps
Color space : YUV
Chroma subsampling : 4:2:0
Bit depth : 8 bits
Scan type : Progressive
Bits/(Pixel*Frame) : 0.315
Stream size : 3.81 GiB (87%)
Writing library : x264 core 67 r1137 1fda882
Encoding settings : cabac=1 / ref=5 / deblock=1:0:0 / analyse=0x3:0x113 / me=umh / subme=7 / psy_rd=1.0:0.3 / mixed_ref=1 / me_range=16 / chroma_me=1 / trellis=1 / 8x8dct=1 / cqm=0 / deadzone=21,11 / chroma_qp_offset=-4 / threads=6 / nr=0 / decimate=1 / mbaff=0 / bframes=3 / b_pyramid=1 / b_adapt=1 / b_bias=0 / direct=3 / wpredb=1 / keyint=250 / keyint_min=25 / scenecut=40 / rc=2pass / bitrate=5262 / ratetol=1.0 / qcomp=0.60 / qpmin=10 / qpmax=51 / qpstep=4 / cplxblur=20.0 / qblur=0.5 / ip_ratio=1.40 / pb_ratio=1.30 / aq=1:1.00
Language : English
Default : Yes
Forced : No

Audio
ID : 2
Format : AC-3
Format/Info : Audio Coding 3
Mode extension : CM (complete main)
Format settings, Endianness : Big
Codec ID : A_AC3
Duration : 1h 46mn
Bit rate mode : Constant
Bit rate : 640 Kbps
Channel(s) : 6 channels
Channel positions : Front: L C R, Side: L R, LFE
Sampling rate : 48.0 KHz
Bit depth : 16 bits
Compression mode : Lossy
Delay relative to video : 1s 0ms
Stream size : 485 MiB (11%)
Title : 5.1
Language : French
Default : Yes
Forced : No