Telecharger Colorado [DVDRiP] French

BLURAY 720p | VOSTFR

Colorado

Colorado

Colorado

Origine du film : Italien
Réalisateur : Sergio Sollima
Acteurs : Lee Van Cleef, Tomás Milian, Fernando Sancho
Genre : Western
Durée : 1h30min
Année de production : 1967
Titre Original : La Resa dei conti
Note spectateurs : Colorado

; »>3,5/5 (63)

Colorado

Un chasseur de primes pouchasse Cuchillo, un peon mexicain accuse de viol et de meurtre par des gros proprietaires. 42649″ style= »display:inline; »>

Qualité : BLURAY 720p
Format : MKV
Langue : Anglais
Sous-titre : MULTiLANGUES
Découpé avec : Winrar
Nombre de fichiers : 5 Fichiers
Taille des fichiers : 1000 Mo 468 Mo

[5 Liens Interchangeables : 4 x 1000 Mo 1 x 468 Mo]

The.Big.Gundown.1966.VOSTFR.720p.BluRay.x264-KeN ( 4468 Mo)

1fichier
Télécharger

Uptobox
Télécharger

Free
Upload en panne

Uploaded
Télécharger

Rapidgator
Télécharger

TurboBit
Télécharger

[1 Lien PREMIUM : 1 x 4.36 GB]

1fichier
Télécharger

Uptobox
Télécharger

Uploaded
Télécharger

TurboBit
Télécharger

NFO :

Afficher / Masquer le texte e85bbb50769abf3143063a0a795edf24″ class= »text_spoiler » style= »display:none; »>****************************************************************
****************************************************************

KKKKKKKKK KKKKKKK NNNNNNNN NNNNNNNN
K:::::::K K:::::K N:::::::N N::::::N
K:::::::K K:::::K N::::::::N N::::::N
K:::::::K K::::::K N:::::::::N N::::::N
KK::::::K K:::::KKK eeeeeeeeeeee N::::::::::N N::::::N
K:::::K K:::::K ee::::::::::::ee N:::::::::::N N::::::N
K::::::K:::::K e::::::eeeee:::::eeN:::::::N::::N N::::::N
K:::::::::::K e::::::e e:::::eN::::::N N::::N N::::::N
K:::::::::::K e:::::::eeeee::::::eN::::::N N::::N:::::::N
K::::::K:::::K e:::::::::::::::::e N::::::N N:::::::::::N
K:::::K K:::::K e::::::eeeeeeeeeee N::::::N N::::::::::N
KK::::::K K:::::KKKe:::::::e N::::::N N:::::::::N
K:::::::K K::::::Ke::::::::e N::::::N N::::::::N
K:::::::K K:::::K e::::::::eeeeeeee N::::::N N:::::::N
K:::::::K K:::::K ee:::::::::::::e N::::::N N::::::N
KKKKKKKKK KKKKKKK eeeeeeeeeeeeee NNNNNNNN NNNNNNN

****************************************************************
****************************************************************

Source : Full BluRay
Note: Les subs anglais forcΘs sont pour la piste anglaise contenant des dialogues italiens

General
Unique ID : 234712385525163870468072108184024798423 (0xB093F60E97676FC551349AD307C254D7)
Complete name : The.Big.Gundown.1966.720p.BluRay.x264-KeN.mkv
Format : Matroska
Format version : Version 4 / Version 2
File size : 4.36 GiB
Duration : 1h 50mn
Overall bit rate : 5 679 Kbps
Encoded date : UTC 2010-02-22 21:41:31
Writing application : mkvmerge v5.9.0 ('On The Loose') built on Dec 9 2012 15:48:35
Writing library : libebml v1.3.0 libmatroska v1.4.0

Video
ID : 1
Format : AVC
Format/Info : Advanced Video Codec
Format profile : [email protected]
Format settings, CABAC : Yes
Format settings, ReFrames : 5 frames
Codec ID : V_MPEG4/ISO/AVC
Duration : 1h 50mn
Bit rate : 5 292 Kbps
Width : 1 280 pixels
Height : 544 pixels
Display aspect ratio : 2.35:1
Frame rate mode : Constant
Frame rate : 24.000 fps
Color space : YUV
Chroma subsampling : 4:2:0
Bit depth : 8 bits
Scan type : Progressive
Bits/(Pixel*Frame) : 0.317
Stream size : 3.98 GiB (91%)
Writing library : x264 core 128
Encoding settings : cabac=1 / ref=5 / deblock=1:0:0 / analyse=0x3:0x133 / me=umh / subme=9 / psy=1 / psy_rd=1,00:0,00 / mixed_ref=1 / me_range=16 / chroma_me=1 / trellis=2 / 8x8dct=1 / cqm=0 / deadzone=21,11 / fast_pskip=1 / chroma_qp_offset=-2 / threads=3 / lookahead_threads=1 / sliced_threads=0 / nr=0 / decimate=1 / interlaced=0 / bluray_compat=0 / constrained_intra=0 / bframes=3 / b_pyramid=2 / b_adapt=2 / b_bias=0 / direct=1 / weightb=1 / open_gop=0 / weightp=2 / keyint=240 / keyint_min=24 / scenecut=40 / intra_refresh=0 / rc_lookahead=40 / rc=2pass / mbtree=1 / bitrate=5292 / ratetol=1,0 / qcomp=0,60 / qpmin=4 / qpmax=69 / qpstep=4 / cplxblur=20,0 / qblur=0,5 / ip_ratio=1,40 / aq=1:1,00
Language : English
Default : Yes
Forced : No
Color primaries : BT.709
Transfer characteristics : BT.709
Matrix coefficients : BT.709

Audio #1
ID : 2
Format : AC-3
Format/Info : Audio Coding 3
Mode extension : CM (complete main)
Format settings, Endianness : Big
Codec ID : A_AC3
Duration : 1h 50mn
Bit rate mode : Constant
Bit rate : 192 Kbps
Channel(s) : 2 channels
Channel positions : Front: L R
Sampling rate : 48.0 KHz
Bit depth : 16 bits
Compression mode : Lossy
Stream size : 151 MiB (3%)
Title : Italian AC3 2.0 @192 Kbps
Language : Italian
Default : Yes
Forced : No

Audio #2
ID : 3
Format : AC-3
Format/Info : Audio Coding 3
Mode extension : CM (complete main)
Format settings, Endianness : Big
Codec ID : A_AC3
Duration : 1h 50mn
Bit rate mode : Constant
Bit rate : 192 Kbps
Channel(s) : 2 channels
Channel positions : Front: L R
Sampling rate : 48.0 KHz
Bit depth : 16 bits
Compression mode : Lossy
Stream size : 151 MiB (3%)
Title : English AC3 2.0 @192 Kbps
Language : English
Default : No
Forced : No

Text #1
ID : 4
Format : UTF-8
Codec ID : S_TEXT/UTF8
Codec ID/Info : UTF-8 Plain Text
Title : English Subs
Language : English
Default : Yes
Forced : No

Text #2
ID : 5
Format : UTF-8
Codec ID : S_TEXT/UTF8
Codec ID/Info : UTF-8 Plain Text
Title : English Forced Subs
Language : English
Default : No
Forced : No

Text #3
ID : 6
Format : UTF-8
Codec ID : S_TEXT/UTF8
Codec ID/Info : UTF-8 Plain Text
Title : French Subs
Language : French
Default : No
Forced : No

Text #4
ID : 7
Format : UTF-8
Codec ID : S_TEXT/UTF8
Codec ID/Info : UTF-8 Plain Text
Title : Spanish Subs
Language : Spanish
Default : No
Forced : No

Text #5
ID : 8
Format : UTF-8
Codec ID : S_TEXT/UTF8
Codec ID/Info : UTF-8 Plain Text
Title : German Subs
Language : German
Default : No
Forced : No

Text #6
ID : 9
Format : UTF-8
Codec ID : S_TEXT/UTF8
Codec ID/Info : UTF-8 Plain Text
Title : Romanian Subs
Language : Romanian
Default : No
Forced : No