Telecharger Coluche, l'histoire d'un mec [BLURAY 720p] French

BLURAY 720p | FRENCH

Coluche, l'histoire d'un mec

Coluche, l'histoire d'un mec

Coluche, l'histoire d'un mec

Origine du film : Français
Réalisateur : Antoine de Caunes
Acteurs : François-Xavier Demaison, Léa Drucker, Olivier Gourmet
Genre : Comédie dramatique
Durée : 1h43min
Date de sortie : 15 octobre 2008
Année de production : 2007
Distribué par : Mars Distribution
Note presse : Coluche, l'histoire d'un mec 3,0/5
Note spectateurs : Coluche, l'histoire d'un mec 2,3/5 (2 101)
Bande annonce :

ef86f60d2420b05b859285c0ffed9a65

18831901″>Cliquez-ici pour voir la bande annonce ef86f60d2420b05b859285c0ffed9a65″> 18831901

ef86f60d2420b05b859285c0ffed9a65

Coluche, l'histoire d'un mec

Septembre 1980. Coluche triomphe tous les soirs au Gymnase. « Comique préféré des Français », il est au sommet de sa gloire ; télés, radios et journaux se l'arrachent, et sa maison est l'endroit où se croise tout ce que le pays compte de vedettes… Toujours prêt à pousser le bouchon un peu plus loin, il décide, pour rire, de poser sa candidature à la Présidence de la République. Très vite, la France se bidonne, l'acclame, le soutient. Les sondages s'affolent, sa cote monte en flèche. Et si finalement un clown se faisait élire Président ? Lui-même commence à y croire…
69297″ style= »display:inline; »>

Coluche, l'histoire d'un mec

Qualité : BLURAY 720p
Format : MKV
Langue : Français
Découpé avec : Winrar
Nombre de fichiers : 5 Fichiers
Taille des fichiers : 1000 Mo + 480 Mo

Coluche, l'histoire d'un mec

[Liens Interchangeables]

Coluche.L’Histoire.d’un.mec.720p.VF.x264.AC3-NoTag ( 4480 Mo)

Uptobox
Télécharger

Uplea
Télécharger

1fichier
Télécharger

Uploaded
Télécharger

Rapidgator
Télécharger

TurboBit
Télécharger

[ 1 lien Premium – 4,4 Go ]

Uptobox
Télécharger

Uplea
Télécharger

1fichier
Télécharger

Uploaded
Télécharger

TurboBit
Télécharger

NFO :

Afficher / Masquer le texte 2659adcc41272e9e44777fe343c265fe » class= »text_spoiler » style= »display:none; »>General
Unique ID : 207927179074262626822004805296879430125 (0x9C6D516B45EFA33280C213D8D1E1E9ED)
Complete name : Coluche.L’Histoire.d’un.mec.720p.VF.x264.AC3-NoTagColuche.L’Histoire.d’un.mec.720p.VF.x264.AC3-NoTag.mkv
Format : Matroska
Format version : Version 1
File size : 4.37 GiB
Duration : 1h 36mn
Overall bit rate : 6 510 Kbps
Encoded date : UTC 2009-10-29 19:33:07
Writing application : mkvmerge v2.4.0 (‘Fumbling Towards Ecstasy’) built on Oct 11 2008 20:13:15
Writing library : libebml v0.7.7 + libmatroska v0.8.1

Video
ID : 1
Format : AVC
Format/Info : Advanced Video Codec
Format profile : [email protected]
Format settings, CABAC : Yes
Format settings, ReFrames : 5 frames
Codec ID : V_MPEG4/ISO/AVC
Duration : 1h 36mn
Bit rate : 6 123 Kbps
Width : 1 280 pixels
Height : 544 pixels
Display aspect ratio : 2.35:1
Frame rate mode : Constant
Frame rate : 25.000 fps
Color space : YUV
Chroma subsampling : 4:2:0
Bit depth : 8 bits
Scan type : Progressive
Bits/(Pixel*Frame) : 0.352
Stream size : 4.03 GiB (92%)
Writing library : x264 core 78 r1310 ec46ace
Encoding settings : cabac=1 / ref=5 / deblock=1:0:0 / analyse=0x3:0x133 / me=umh / subme=7 / psy=1 / psy_rd=1.0:0.0 / mixed_ref=1 / me_range=16 / chroma_me=1 / trellis=1 / 8x8dct=1 / cqm=0 / deadzone=21,11 / chroma_qp_offset=-2 / threads=3 / nr=0 / decimate=1 / mbaff=0 / constrained_intra=0 / bframes=3 / b_pyramid=2 / b_adapt=1 / b_bias=0 / direct=3 / wpredb=1 / keyint=250 / keyint_min=25 / scenecut=40 / rc=2pass / mbtree=0 / bitrate=6123 / ratetol=1.0 / qcomp=0.60 / qpmin=10 / qpmax=51 / qpstep=4 / cplxblur=20.0 / qblur=0.5 / ip_ratio=1.40 / pb_ratio=1.30 / aq=1:1.00
Language : English
Default : Yes
Forced : No

Audio
ID : 2
Format : AC-3
Format/Info : Audio Coding 3
Mode extension : CM (complete main)
Format settings, Endianness : Big
Codec ID : A_AC3
Duration : 1h 36mn
Bit rate mode : Constant
Bit rate : 384 Kbps
Channel(s) : 6 channels
Channel positions : Front: L C R, Side: L R, LFE
Sampling rate : 48.0 KHz
Bit depth : 16 bits
Compression mode : Lossy
Stream size : 264 MiB (6%)
Title : French
Language : French
Default : Yes
Forced : No