Telecharger Commando [DVDRiP] French

BLURAY 1080p | MULTiLANGUES | DTS

Commando

Commando

Commando

Origine du film : Américain
Réalisateur : Mark L. Lester
Acteurs : Arnold Schwarzenegger, Rae Dawn Chong, Dan Hedaya
Genre : Action
Durée : 1h 28min
Date de sortie : 5 février 1986
Année de production : 1985
Note spectateurs : Commando

; »>2,4/5 (1 989)
Bande annonce :

9ca17d776c8841f44d941a296ed7d492

19371639″>Cliquez-ici pour voir la bande annonce 9ca17d776c8841f44d941a296ed7d492″> 19371639

9ca17d776c8841f44d941a296ed7d492

Commando

Après avoir mené de nombreuses missions périlleuses, le colonel John Matrix, un ancien combattant d'élite, coule des jours heureux avec sa fille Jenny, âgée de 12 ans. Mais le général Arius, dictateur déchu, fait kidnapper celle-ci et charge Matrix d'assassiner l'actuel Président du Valverde. Ce qui n'est pas dans les plans de notre héros…

Nom de la release : Commando.1985.MULTi.1080p.BluRay.x264-Cris0 29591″ style= »display:inline; »>

Qualité : BLURAY 1080p
Format : MKV
Langue : Multilangage
Sous-titre : Français
Découpé avec : Winrar
Nombre de fichiers : 11 Fichiers
Taille des fichiers : 1000 Mo 86 Mo
Taille totale : 10086 Mo

[Liens Interchangeables]

1fichier
Télécharger

Uptobox
Télécharger

Free
Télécharger

Uploaded
Télécharger

TurboBit
Télécharger

[1 Lien Premium]

1fichier
Télécharger

Uptobox
Télécharger

TurboBit
Télécharger

NFO :

Afficher / Masquer le texte 2e1035c99037e84c24ecffc05b65bb37″ class= »text_spoiler » style= »display:none; »>Format : Matroska
Format version : Version 2
File size : 9.87 GiB
Duration : 1h 30mn
Overall bit rate : 15.7 Mbps
Encoded date : UTC 2013-06-22 22:22:38
Writing application : mkvmerge v4.9.1 ('Ich will') built on Jul 11 2011 23:53:15
Writing library : libebml v1.2.1 libmatroska v1.1.1

Video
ID : 1
Format : AVC
Format/Info : Advanced Video Codec
Format profile : [email protected]
Format settings, CABAC : Yes
Format settings, ReFrames : 4 frames
Muxing mode : Header stripping
Codec ID : V_MPEG4/ISO/AVC
Duration : 1h 30mn
Bit rate : 13.0 Mbps
Nominal bit rate : 11.0 Mbps
Width : 1 920 pixels
Height : 1 040 pixels
Display aspect ratio : 16:9
Frame rate : 23.976 fps
Color space : YUV
Chroma subsampling : 4:2:0
Bit depth : 8 bits
Scan type : Progressive
Bits/(Pixel*Frame) : 0.272
Stream size : 8.21 GiB (83%)
Title : Encode par Cris01
Writing library : x264 core 130 r2273 b3065e6
Encoding settings : cabac=1 / ref=4 / deblock=1:-3:-3 / analyse=0x3:0x113 / me=umh / subme=11 / psy=1 / psy_rd=0.90:0.02 / mixed_ref=1 / me_range=64 / chroma_me=1 / trellis=2 / 8x8dct=1 / cqm=0 / deadzone=21,11 / fast_pskip=0 / chroma_qp_offset=-3 / threads=6 / lookahead_threads=1 / sliced_threads=0 / nr=0 / decimate=1 / interlaced=0 / bluray_compat=0 / constrained_intra=0 / bframes=4 / b_pyramid=2 / b_adapt=2 / b_bias=0 / direct=1 / weightb=1 / open_gop=1 / weightp=2 / keyint=240 / keyint_min=23 / scenecut=40 / intra_refresh=0 / rc_lookahead=120 / rc=2pass / mbtree=1 / bitrate=11000 / ratetol=1.0 / qcomp=0.60 / qpmin=10 / qpmax=51 / qpstep=4 / cplxblur=20.0 / qblur=0.5 / vbv_maxrate=50000 / vbv_bufsize=50000 / nal_hrd=none / ip_ratio=1.40 / aq=1:1.00
Language : English

Audio #1
ID : 2
Format : DTS
Format/Info : Digital Theater Systems
Muxing mode : Header stripping
Codec ID : A_DTS
Duration : 1h 30mn
Bit rate mode : Constant
Bit rate : 755 Kbps
Channel(s) : 6 channels
Channel positions : Front: L C R, Side: L R, LFE
Sampling rate : 48.0 KHz
Bit depth : 24 bits
Compression mode : Lossy
Stream size : 487 MiB (5%)
Title : VFF DTS
Language : French

Audio #2
ID : 3
Format : DTS
Format/Info : Digital Theater Systems
Format profile : MA / Core
Muxing mode : Header stripping
Codec ID : A_DTS
Duration : 1h 30mn
Bit rate mode : Variable
Bit rate : 1 561 Kbps / 1 510 Kbps
Channel(s) : 6 channels
Channel positions : Front: L C R, Side: L R, LFE
Sampling rate : 48.0 KHz
Bit depth : 24 bits
Compression mode : Lossless / Lossy
Title : VO DTSMA
Language : English

Text #1
ID : 4
Format : UTF-8
Codec ID : S_TEXT/UTF8
Codec ID/Info : UTF-8 Plain Text
Title : Forced FR
Language : French

Text #2
ID : 5
Format : UTF-8
Codec ID : S_TEXT/UTF8
Codec ID/Info : UTF-8 Plain Text
Title : Complets FR
Language : French