Télécharger Comme un avion Blu-Ray 1080p/720p FRENCH

Qualité BLURAY 720p | FRENCH

Comme un avion

Comme un avion

Origine du film : Français
Réalisateur : Bruno Podalydès
Acteurs : Bruno Podalydès, Agnès Jaoui, Sandrine Kiberlain
Genre : Comédie
Durée : 1h45min
Date de sortie : 10 juin 2015
Année de production : 2014
Distribué par : UGC Distribution
Note presse : Comme un avion 4,0/5
Note spectateurs : Comme un avion 3,5/5 (1 038)
Bande annonce :

0ed52a2cea230a7f9c437895283d48a2

19552942″>Cliquez-ici pour voir la bande annonce 0ed52a2cea230a7f9c437895283d48a2″> 19552942

0ed52a2cea230a7f9c437895283d48a2

Comme un avion

Michel, la cinquantaine, est infographiste. Passionné par l’aéropostale, il se rêve en Jean Mermoz quand il prend son scooter. Et pourtant, lui‐même n’a jamais piloté d’avion… Un jour, Michel tombe en arrêt devant des photos de kayak : on dirait le fuselage d’un avion. C’est le coup de foudre. En cachette de sa femme, il achète un kayak à monter soi‐même et tout le matériel qui va avec. Michel pagaie des heures sur son toit, rêve de grandes traversées en solitaire mais ne se décide pas à le mettre à l’eau. Rachelle découvre tout son attirail et le pousse alors à larguer les amarres. Michel part enfin sur une jolie rivière inconnue. Il fait une première escale et découvre une guinguette installée le long de la rive. C’est ainsi qu’il fait la connaissance de la patronne Laetitia, de la jeune serveuse Mila, et de leurs clients ‐ dont la principale occupation est de bricoler sous les arbres et boire de l’absinthe. Michel sympathise avec tout ce petit monde, installe sa tente pour une nuit près de la buvette et, le lendemain, a finalement beaucoup de mal à quitter les lieux…
104092″ style= »display:inline; »>

Comme un avion

Format : MKV
Découpé avec : Winrar

Comme un avion

Comme.Un.Avion.2015.FRENCH.720p.BluRay.x264-AKATSUKi

(4463 Mo)

[Liens Interchangeables entre hébergeurs: 4x 1000 Mo + 1x 463 Mo]

Uptobox
Télécharger

Uplea
Télécharger

1fichier
Télécharger

Uploaded
Télécharger

Rapidgator
Télécharger

TurboBit
Télécharger

[Liens PREMIUM]

Uptobox
Télécharger

Uplea
Télécharger

1fichier
Télécharger

Uploaded
Télécharger

Rapidgator
Télécharger

TurboBit
Télécharger

NFO :

Afficher / Masquer le texte 7c8fd5a8d8d4f96991c56402df6d51c1″ class= »text_spoiler » style= »display:none; »>General
Format : Matroska
Format version : Version 4 / Version 2
File size : 4.36 GiB
Duration : 1h 44mn
Overall bit rate : 5 960 Kbps
Encoded date : UTC 2015-11-07 07:31:47
Writing application : mkvmerge v8.3.0 (‘Over the Horizon’) 64bit
Writing library : libebml v1.3.1 + libmatroska v1.4.2
DURATION : 01:44:16.333000000
NUMBER_OF_FRAMES : 2987
NUMBER_OF_BYTES : 6909955
_STATISTICS_WRITING_APP : mkvmerge v8.3.0 (‘Over the Horizon’) 64bit
_STATISTICS_WRITING_DATE_UTC : 2015-11-07 07:31:47
_STATISTICS_TAGS : BPS DURATION NUMBER_OF_FRAMES NUMBER_OF_BYTES

Video
ID : 1
Format : AVC
Format/Info : Advanced Video Codec
Format profile : [email protected]
Format settings, CABAC : Yes
Format settings, ReFrames : 5 frames
Codec ID : V_MPEG4/ISO/AVC
Duration : 1h 44mn
Bit rate : 4 440 Kbps
Width : 1 280 pixels
Height : 688 pixels
Display aspect ratio : 1.85:1
Frame rate mode : Constant
Frame rate : 24.000 fps
Color space : YUV
Chroma subsampling : 4:2:0
Bit depth : 8 bits
Scan type : Progressive
Bits/(Pixel*Frame) : 0.210
Stream size : 3.17 GiB (73%)
Writing library : x264 core 146 r2538 121396c
Encoding settings : cabac=1 / ref=5 / deblock=1:1:1 / analyse=0x3:0x113 / me=umh / subme=8 / psy=1 / psy_rd=1.00:0.00 / mixed_ref=1 / me_range=16 / chroma_me=1 / trellis=1 / 8x8dct=1 / cqm=0 / deadzone=21,11 / fast_pskip=0 / chroma_qp_offset=-2 / threads=6 / lookahead_threads=1 / sliced_threads=0 / nr=0 / decimate=1 / interlaced=0 / bluray_compat=0 / constrained_intra=0 / bframes=3 / b_pyramid=2 / b_adapt=2 / b_bias=0 / direct=3 / weightb=1 / open_gop=0 / weightp=2 / keyint=240 / keyint_min=24 / scenecut=40 / intra_refresh=0 / rc_lookahead=50 / rc=2pass / mbtree=1 / bitrate=4440 / ratetol=1.0 / qcomp=0.60 / qpmin=0 / qpmax=69 / qpstep=4 / cplxblur=20.0 / qblur=0.5 / ip_ratio=1.40 / aq=1:1.00
Default : Yes
Forced : No

Audio
ID : 2
Format : DTS
Format/Info : Digital Theater Systems
Mode : 16
Format settings, Endianness : Big
Codec ID : A_DTS
Duration : 1h 44mn
Bit rate mode : Constant
Bit rate : 1 509 Kbps
Channel(s) : 6 channels
Channel positions : Front: L C R, Side: L R, LFE
Sampling rate : 48.0 KHz
Bit depth : 24 bits
Compression mode : Lossy
Stream size : 1.10 GiB (25%)
Language : French
Default : Yes
Forced : No

Text
ID : 3
Format : PGS
Muxing mode : zlib
Codec ID : S_HDMV/PGS
Codec ID/Info : The same subtitle format used on BDs/HD-DVDs
Title : French (SDH)
Default : No
Forced : No

Menu
00:00:00.000 : en:00:00:00.000
00:08:01.875 : en:00:08:01.875
00:18:30.542 : en:00:18:30.542
00:25:57.958 : en:00:25:57.958
00:34:36.208 : en:00:34:36.208
00:44:44.042 : en:00:44:44.042
00:55:08.708 : en:00:55:08.708
01:03:36.083 : en:01:03:36.083
01:13:15.000 : en:01:13:15.000
01:22:26.208 : en:01:22:26.208
01:30:04.375 : en:01:30:04.375
01:36:06.542 : en:01:36:06.542

Jeux Gratuit
15354131_1854970838071206_1069261547_o.png