Telecharger Comme un chien enragé [DVDRiP] French

Qualité DVDRiP | FRENCH

Comme un chien enragé

Comme un chien enragé

Comme un chien enragé

Origine du film : Américain
Réalisateur : James Foley
Acteurs : Christopher Walken, Sean Penn, Mary Stuart Masterson
Genre : Drame, Thriller, Romance
Durée : 1h51min
Date de sortie : 14 janvier 1987
Année de production : 1986
Titre Original : At Close Range
Note spectateurs : Comme un chien enragé

; »>3,5/5 (284)
Bande annonce :

4aedaa084ffe4d8f48c8db469a123f15

19408314″>Cliquez-ici pour voir la bande annonce 4aedaa084ffe4d8f48c8db469a123f15″> 19408314

4aedaa084ffe4d8f48c8db469a123f15

Comme un chien enragé

Brad Jr. vient de quitter l'école et s'ennuie dans sa petite ville de Pennsylvanie. Il revoit son père, Brad Sr., qui a depuis longtemps quitté sa famille pour vivre en bande avec ses copains avec lesquels il a monté un gang de vols de véhicules. Brad Jr., de plus en plus admiratif, finit avec un groupe de copains par faire la même chose. Encouragé par les aînés, le jeune gang vole des tracteurs. Le drame éclate lorsque la police s'en mêle. Ce film est tiré d'un fait divers où un gang, en 1978, recruta des adolescents et les assassina froidement comme des témoins dangereux. 39522″ style= »display:inline; »>

Qualité : DVDRiP
Format : XviD
Langue : Français

Comme un chien enragé FRENCH DVDRip-NOTAG ( 700 Mo)

1fichier
Télécharger

Uptobox
Télécharger

Free
Upload en panne

Uploaded
Télécharger

Rapidgator
Télécharger

TurboBit
Télécharger

NFO :

Afficher / Masquer le texte 59c804e9589abd104100547b21691568″ class= »text_spoiler » style= »display:none; »>General

Complete name : C:UsersdellDownloadsComme un chien enragé.avi

Format : AVI

Format/Info : Audio Video Interleave

File size : 700 MiB

Duration : 1h 50mn

Overall bit rate : 883 Kbps

Writing application : FairUse Wizard – http://fairusewizard.com

Writing library : The best and REALLY easy backup tool

Video

ID : 0

Format : MPEG-4 Visual

Format profile : Advanced [email protected]

Format settings, BVOP : 1

Format settings, QPel : No

Format settings, GMC : No warppoints

Format settings, Matrix : Default (MPEG)

Muxing mode : Packed bitstream

Codec ID : XVID

Codec ID/Hint : XviD

Duration : 1h 50mn

Bit rate : 745 Kbps

Width : 576 pixels

Height : 240 pixels

Display aspect ratio : 2.40:1

Frame rate : 25.000 fps

Color space : YUV

Chroma subsampling : 4:2:0

Bit depth : 8 bits

Scan type : Progressive

Compression mode : Lossy

Bits/(Pixel*Frame) : 0.216

Stream size : 591 MiB (84%)

Writing library : XviD 1.2.0.dev47 (UTC 2006-11-01)

Audio

ID : 1

Format : MPEG Audio

Format version : Version 1

Format profile : Layer 3

Mode : Joint stereo

Mode extension : MS Stereo

Codec ID : 55

Codec ID/Hint : MP3

Duration : 1h 50mn

Bit rate mode : Constant

Bit rate : 128 Kbps

Channel(s) : 2 channels

Sampling rate : 48.0 KHz

Compression mode : Lossy

Stream size : 101 MiB (14%)

Alignment : Aligned on interleaves

Interleave, duration : 40 ms (1.00 video frame)

Interleave, preload duration : 504 ms

Writing library : LAME3.97b

Encoding settings : -m j -V 4 -q 2 -lowpass 17 -b 128

Jeux Gratuit
15354131_1854970838071206_1069261547_o.png