Telecharger Conjuring : Les dossiers Warren [BLURAY 720p] French

BLURAY 720p | FRENCH

Conjuring : Les dossiers Warren

Conjuring : Les dossiers Warren

Conjuring : Les dossiers Warren

Origine du film : Américain
Réalisateur : James Wan
Acteurs : Vera Farmiga, Patrick Wilson, Ron Livingston
Genre : Epouvante-horreur
Durée : 1h 50min
Date de sortie : 21 août 2013,
Année de production : 2013
Titre Original : The Conjuring
Distribué par : Warner Bros. France
Note presse : Conjuring : Les dossiers Warren 3,3/5
Note spectateurs : Conjuring : Les dossiers Warren

; »>4,3/5 (4 075)

Conjuring : Les dossiers Warren

Avant Amityville, il y avait Harrisville… Conjuring : Les dossiers Warren, raconte l’histoire horrible, mais vraie, d’Ed et Lorraine Warren, enquêteurs paranormaux réputés dans le monde entier, venus en aide à une famille terrorisée par une présence inquiétante dans leur ferme isolée… Contraints d’affronter une créature démoniaque d’une force redoutable, les Warren se retrouvent face à l’affaire la plus terrifiante de leur carrière…

Nom de la release : The.Conjuring.2013.FRENCH.720p.BluRay.x264-ROUGH 35807″ style= »display:inline; »>

Conjuring : Les dossiers Warren

Qualité : BLURAY 720p
Format : MKV
Langue : Français
Sous-titre : Français
Découpé avec : Winrar
Nombre de fichiers : 5 Fichiers
Taille des fichiers : 1000 Mo + 474 Mo
Taille totale : 4474 Mo

Conjuring : Les dossiers Warren

[5 Liens Interchangeables : 4 x 1000 Mo + 1 x 474 Mo]

1fichier
Télécharger

Uptobox
Télécharger

Free
Télécharger

Uploaded
Télécharger

Rapidgator
Télécharger

TurboBit
Télécharger

[1 Lien PREMIUM : 1 x 4.36 GB]

1fichier
Télécharger

Uptobox
Télécharger

Uploaded
Télécharger

TurboBit
Télécharger

NFO :

Afficher / Masquer le texte 7cdf44644efd86e2d9dc3d51c64fd073″ class= »text_spoiler » style= »display:none; »>Format : Matroska
Format version : Version 2
File size : 4.37 GiB
Duration : 1h 51mn
Overall bit rate : 5 587 Kbps
Writing application : mkvmerge v4.1.1

Video
ID : 1
Format : AVC
Format/Info : Advanced Video Codec
Format profile : [email protected]
Format settings, CABAC : Yes
Format settings, ReFrames : 5 frames
Codec ID : V_MPEG4/ISO/AVC
Duration : 1h 51mn
Bit rate : 4 946 Kbps
Width : 1 280 pixels
Height : 536 pixels
Display aspect ratio : 2.40:1
Frame rate : 23.976 fps
Color space : YUV
Chroma subsampling : 4:2:0
Bit depth : 8 bits
Scan type : Progressive
Bits/(Pixel*Frame) : 0.301
Stream size : 3.78 GiB (87%)
Writing library : x264 core 138 r2358 9e941d1
Encoding settings : cabac=1 / ref=5 / deblock=1:0:0 / analyse=0x3:0x133 / me=umh / subme=7 / psy=1 / psy_rd=1.00:0.00 / mixed_ref=1 / me_range=16 / chroma_me=1 / trellis=1 / 8x8dct=1 / cqm=0 / deadzone=21,11 / fast_pskip=0 / chroma_qp_offset=-2 / threads=18 / lookahead_threads=3 / sliced_threads=0 / nr=0 / decimate=1 / interlaced=0 / bluray_compat=0 / constrained_intra=0 / bframes=3 / b_pyramid=2 / b_adapt=2 / b_bias=0 / direct=3 / weightb=1 / open_gop=0 / weightp=2 / keyint=250 / keyint_min=23 / scenecut=40 / intra_refresh=0 / rc_lookahead=50 / rc=2pass / mbtree=1 / bitrate=4946 / ratetol=1.0 / qcomp=0.60 / qpmin=0 / qpmax=69 / qpstep=4 / cplxblur=20.0 / qblur=0.5 / ip_ratio=1.40 / aq=1:1.00
Language : English
Default : Yes
Forced : No

Audio
ID : 2
Format : AC-3
Format/Info : Audio Coding 3
Mode extension : CM (complete main)
Codec ID : A_AC3
Duration : 1h 51mn
Bit rate mode : Constant
Bit rate : 640 Kbps
Channel(s) : 6 channels
Channel positions : Front: L C R, Side: L R, LFE
Sampling rate : 48.0 KHz
Bit depth : 16 bits
Compression mode : Lossy
Stream size : 512 MiB (11%)
Title : AC3 5.1
Language : French
Default : Yes
Forced : No

Text
ID : 3
Format : UTF-8
Codec ID : S_TEXT/UTF8
Codec ID/Info : UTF-8 Plain Text
Title : Forced
Language : French
Default : Yes
Forced : Yes