Telecharger Coraline [BLURAY 720p] French

(TRUEFRENCH = Vraie voix française)

(AC3 = Dolby Digital 5.1)

BLURAY 720p | MULTiLANGUES (Avec TRUEFRENCH) | VO DTS | VFF AC3

Coraline

Coraline

Coraline

Origine du film : Américain
Réalisateur : Henry Selick
Acteurs : Dakota Fanning, Teri Hatcher, Jennifer Saunders
Genre : Animation
Durée : 1h 40min
Date de sortie : 10 juin 2009
Année de production : 2009
Distribué par : Universal Pictures International France
Note presse : Coraline 4,5/5
Note spectateurs : Coraline

; »>4/5 (4 069)
Bande annonce :

319bf5edcc804e1bd8445c57e67c8c83

18874791″>Cliquez-ici pour voir la bande annonce 319bf5edcc804e1bd8445c57e67c8c83″> 18874791

319bf5edcc804e1bd8445c57e67c8c83

Coraline

Coraline Jones est une fillette intrépide et douée d'une curiosité sans limites. Ses parents, qui ont tout juste emménagé avec elle dans une étrange maison, n'ont guère de temps à lui consacrer. Pour tromper son ennui, Coraline décide donc de jouer les exploratrices. Ouvrant une porte condamnée, elle pénètre dans un appartement identique au sien… mais où tout est différent. Dans cet Autre Monde, chaque chose lui paraît plus belle, plus colorée et plus attrayante. Son Autre Mère est pleinement disponible, son Autre Père prend la peine de lui mitonner des plats exquis, et même le Chat, si hautain dans la Vraie vie, daigne s'entretenir avec elle. Coraline est bien tentée d'élire domicile dans ce Monde merveilleux, qui répond à toutes ses attentes. Mais le rêve va très vite tourner au cauchemar. Prisonnière de l'Autre Mère, Coraline va devoir déployer des trésors de bravoure, d'imagination et de ténacité pour rentrer chez elle et sauver sa Vraie famille…

Nom de la release : Coraline.2009.BluRay.720p.VFF.MULTI.AC3.DTS.5.1.x264-STEAL 28210″ style= »display:inline; »>

Qualité : BLURAY 720p
Format : MKV
Langue : Anglais, Français
Sous-titre : Français
Découpé avec : Winrar
Nombre de fichiers : 5 Fichiers
Taille des fichiers : 1000 Mo 332 Mo
Taille totale : 4332 Mo

[5 Liens Interchangeables : 4 x 1000 Mo 1 x 332 Mo]

1fichier
Télécharger

Uptobox
Télécharger

Free
Télécharger

Uploaded
Télécharger

Rapidgator
Télécharger

TurboBit
Télécharger

[1 lien PREMIUM : 1 x 4.23 GB]

1fichier
Télécharger

Uptobox
Télécharger

Uploaded
Télécharger

TurboBit
Télécharger

NFO :

Afficher / Masquer le texte 625b09b286b06263aad839cf23163cfe » class= »text_spoiler » style= »display:none; »>General
Unique ID : 147454604894283654642865112763168853312 (0x6EEEB95188DA39DDF1B71B802BDE0D40)
Complete name : E:signales 12Coraline.2009.BluRay.720p.VFF.MULTI.AC3.DTS.5.1.x264-STEAL-www.Zone-Telechargement.com.mkv
Format : Matroska
Format version : Version 2
File size : 4.23 GiB
Duration : 1h 40mn
Overall bit rate : 6 021 Kbps
Movie name : Coraline 2009 BluRay 720p VFF MULTI AC3 DTS 5.1 x264-STEAL
Encoded date : UTC 2012-12-21 22:22:02
Writing application : mkvmerge v5.0.1 ('Es ist Sommer') built on Oct 13 2011 12:47:36
Writing library : libebml v1.2.2 libmatroska v1.3.0

Video
ID : 1
Format : AVC
Format/Info : Advanced Video Codec
Format profile : [email protected]
Format settings, CABAC : Yes
Format settings, ReFrames : 9 frames
Codec ID : V_MPEG4/ISO/AVC
Duration : 1h 40mn
Bit rate : 3 944 Kbps
Width : 1 280 pixels
Height : 720 pixels
Display aspect ratio : 16:9
Frame rate mode : Constant
Frame rate : 23.976 fps
Color space : YUV
Chroma subsampling : 4:2:0
Bit depth : 8 bits
Scan type : Progressive
Bits/(Pixel*Frame) : 0.178
Stream size : 2.77 GiB (66%)
Title : Coraline
Writing library : x264 core 128 r2M 198a7ea
Encoding settings : cabac=1 / ref=9 / deblock=1:1:1 / analyse=0x3:0x113 / me=umh / subme=11 / psy=1 / psy_rd=0.90:0.02 / mixed_ref=1 / me_range=128 / chroma_me=1 / trellis=2 / 8x8dct=1 / cqm=0 / deadzone=6,6 / fast_pskip=0 / chroma_qp_offset=-3 / threads=6 / lookahead_threads=1 / sliced_threads=0 / nr=0 / decimate=0 / interlaced=0 / bluray_compat=0 / constrained_intra=0 / bframes=8 / b_pyramid=2 / b_adapt=2 / b_bias=0 / direct=3 / weightb=1 / open_gop=1 / weightp=2 / keyint=250 / keyint_min=23 / scenecut=40 / intra_refresh=0 / rc_lookahead=250 / rc=crf / mbtree=1 / crf=18.5 / qcomp=0.75 / qpmin=0 / qpmax=69 / qpstep=4 / vbv_maxrate=50000 / vbv_bufsize=50000 / crf_max=0.0 / nal_hrd=none / ip_ratio=1.40 / aq=3:0.75
Language : English
Default : No
Forced : No
Color primaries : BT.709
Transfer characteristics : BT.709
Matrix coefficients : BT.709

Audio #1
ID : 2
Format : AC-3
Format/Info : Audio Coding 3
Mode extension : CM (complete main)
Format settings, Endianness : Big
Codec ID : A_AC3
Duration : 1h 40mn
Bit rate mode : Constant
Bit rate : 448 Kbps
Channel(s) : 6 channels
Channel positions : Front: L C R, Side: L R, LFE
Sampling rate : 48.0 KHz
Bit depth : 16 bits
Compression mode : Lossy
Stream size : 322 MiB (7%)
Title : VFF AC3 5.1
Language : French
Default : Yes
Forced : No

Audio #2
ID : 3
Format : DTS
Format/Info : Digital Theater Systems
Mode : 16
Format settings, Endianness : Big
Codec ID : A_DTS
Duration : 1h 40mn
Bit rate mode : Constant
Bit rate : 1 509 Kbps
Channel(s) : 6 channels
Channel positions : Front: L C R, Side: L R, LFE
Sampling rate : 48.0 KHz
Bit depth : 24 bits
Compression mode : Lossy
Stream size : 1.06 GiB (25%)
Title : VO DTS 5.1
Language : English
Default : No
Forced : No

Text #1
ID : 4
Format : UTF-8
Codec ID : S_TEXT/UTF8
Codec ID/Info : UTF-8 Plain Text
Title : Français Complet SRT
Language : French
Default : No
Forced : No

Text #2
ID : 5
Format : UTF-8
Codec ID : S_TEXT/UTF8
Codec ID/Info : UTF-8 Plain Text
Title : Français Forcés SRT
Language : French
Default : Yes
Forced : No

Menu
00:00:00.000 : en:00:00:00.000
00:08:12.283 : en:00:08:12.283
00:13:56.210 : en:00:13:56.210
00:18:26.731 : en:00:18:26.731
00:23:09.471 : en:00:23:09.471
00:26:45.771 : en:00:26:45.771
00:32:34.578 : en:00:32:34.578
00:36:57.173 : en:00:36:57.173
00:40:39.187 : en:00:40:39.187
00:44:19.907 : en:00:44:19.907
00:50:50.005 : en:00:50:50.005
00:55:04.551 : en:00:55:04.551
01:00:19.825 : en:01:00:19.825
01:05:54.868 : en:01:05:54.868
01:11:01.591 : en:01:11:01.591
01:15:23.686 : en:01:15:23.686
01:17:27.893 : en:01:17:27.893
01:21:20.709 : en:01:21:20.709
01:27:05.345 : en:01:27:05.345
01:34:42.635 : en:01:34:42.635