Télécharger Country Strong French

(TRUEFRENCH = Vraie voix française)

Qualité BDRiP | TRUEFRENCH

Country Strong

Country Strong

Country Strong

Origine du film : Américain
Réalisateur : Shana Feste
Acteurs : Gwyneth Paltrow, Tim McGraw, Garrett Hedlund
Genre : Drame, Biopic, Musical
Durée : 1h 52min
Date de sortie : 4 mai 2011
Année de production : 2010
Distribué par : Sony Pictures Releasing France
Note presse : Country Strong 1,3/5
Note spectateurs : Country Strong 3,4/5 (136)
Bande annonce :

c33876c651ec2a7f0b84e5cdcabe726e

19196355″>Cliquez-ici pour voir la bande annonce c33876c651ec2a7f0b84e5cdcabe726e »> 19196355

c33876c651ec2a7f0b84e5cdcabe726e

Country Strong

Un compositeur de musique country écrit pour une star déchue. Ensemble, ils relancent sa carrière mais entrent également dans une relation compliquée, impliquant le mari/manager de la chanteuse et une jeune starlette…

Nom de la release : Country.Strong.2010.TRUEFRENCH.BRRiP.XviD-MasterTuX 12082″ style= »display:inline; »>

Qualité : BDRiP
Format : XviD
Langue : Français
Taille totale : 700 Mo

TurboBit.net
Télécharger

Uploaded.to
Télécharger

Uptobox.com
Télécharger

NFO :

Afficher / Masquer le texte 2d55cfb9794619c1792e8a4ed7a41463″ class= »text_spoiler » style= »display:none; »>General
Complete name : Country.Strong.2010.TRUEFRENCH.BRRiP.XviD-MasterTuX.avi
Format : AVI
Format/Info : Audio Video Interleave
File size : 702 MiB
Duration : 1h 57mn
Overall bit rate : 838 Kbps

Video
ID : 0
Format : MPEG-4 Visual
Format profile : Advanced [email protected]
Format settings, BVOP : 2
Format settings, QPel : No
Format settings, GMC : No warppoints
Format settings, Matrix : Default (H.263)
Codec ID : XVID
Codec ID/Hint : XviD
Duration : 1h 55mn
Bit rate : 711 Kbps
Width : 624 pixels
Height : 352 pixels
Display aspect ratio : 16:9
Frame rate : 23.976 fps
Color space : YUV
Chroma subsampling : 4:2:0
Bit depth : 8 bits
Scan type : Progressive
Compression mode : Lossy
Bits/(Pixel*Frame) : 0.135
Stream size : 588 MiB (84%)
Writing library : XviD 1.2.1 (UTC 2008-12-04)

Audio
ID : 1
Format : MPEG Audio
Format version : Version 1
Format profile : Layer 3
Codec ID : 55
Codec ID/Hint : MP3
Duration : 1h 57mn
Bit rate mode : Constant
Bit rate : 128 Kbps
Channel(s) : 2 channels
Sampling rate : 48.0 KHz
Compression mode : Lossy
Stream size : 106 MiB (15%)
Alignment : Aligned on interleaves
Interleave, duration : 42 ms (1.00 video frame)