Telecharger Crows Zero [BLURAY 720p] French

BLURAY 720p | FRENCH

Crows Zero

Crows Zero

Crows Zero

Origine du film : Japonais
Réalisateur : Takashi Miike
Acteurs : Shun Oguri, Kyôsuke Yabe, Takayuki Yamada
Genre : Action, Thriller
Durée : 2h 10min
Année de production : 2007
Titre Original : Kurôzu Zero
Note spectateurs : Crows Zero 3,7/5 (690)
Bande annonce :

f6ce8e40f88b46a0d62ad05826b99db0

18898712″>Cliquez-ici pour voir la bande annonce f6ce8e40f88b46a0d62ad05826b99db0″> 18898712

f6ce8e40f88b46a0d62ad05826b99db0

Crows Zero

Takiya, un nouveau venu au sein du lycée Suzuran, où des bandes très violentes s'affrontent quotidiennement, veut tenter d'en prendre le contrôle. Pour ce faire, il est entraîné par Katagiri, un ancien Yakuza, et doit lutter contre son rival Serizawa.

Nom de la release : Crows.Zero.2007.FRENCH.720p.BluRay.x264.AC3-NoTeam 21114″ style= »display:inline; »>

Crows Zero

Qualité : BLURAY 720p
Format : MKV
Langue : Français
Découpé avec : Winrar
Nombre de fichiers : 7 Fichiers
Taille des fichiers : 1000 Mo 712 Mo
Taille totale : 6712 Mo

Crows Zero

[Liens Interchangeables]

1fichier
Télécharger

Uptobox
Télécharger

Uploaded
Télécharger

Rapidgator
Télécharger

TurboBit
Télécharger

[1 lien PREMIUM]

1fichier
Télécharger

Uptobox
Télécharger

Uploaded
Télécharger

Rapidgator
Télécharger

TurboBit
Télécharger

NFO :

Afficher / Masquer le texte 6cd32a87370154a360c95899da56b23a » class= »text_spoiler » style= »display:none; »>■General

Unique ID : 241587126799533021293170274928583624177 (0xB5BFFCF896D3B1609A83CD20DDF5C5F1)

Complete name : E:HDCrows Zero.2007.FRENCH.720p.BluRay.x264.ac3-NoTeam.mkv

Format : Matroska

File size : 6.55 GiB

Duration : 2h 9mn

Overall bit rate : 7 219 Kbps

Movie name : CROWS_ZERO.Title2.BlurayRip

Encoded date : UTC 2011-01-01 00:05:14

Writing application : DVDFab

Writing library : libebml v0.7.8 libmatroska v0.8.1

Video

ID : 1

Format : AVC

Format/Info : Advanced Video Codec

Format profile : [email protected]

Format settings, CABAC : Yes

Format settings, ReFrames : 2 frames

Format settings, GOP : M=17, N=24

Codec ID : V_MPEG4/ISO/AVC

Duration : 2h 9mn

Bit rate : 6 563 Kbps

Width : 1 280 pixels

Height : 692 pixels

Display aspect ratio : 1.850

Frame rate : 23.976 fps

Color space : YUV

Chroma subsampling : 4:2:0

Bit depth : 8 bits

Scan type : Progressive

Bits/(Pixel*Frame) : 0.309

Stream size : 5.96 GiB (91%)

Writing library : x264 core

Color primaries : BT.709-5, BT.1361, IEC 61966-2-4, SMPTE RP177

Transfer characteristics : BT.709-5, BT.1361

Matrix coefficients : BT.709-5, BT.1361, IEC 61966-2-4 709, SMPTE RP177

Audio

ID : 2

Format : AC-3

Format/Info : Audio Coding 3

Mode extension : CM (complete main)

Codec ID : A_AC3

Duration : 2h 9mn

Bit rate mode : Constant

Bit rate : 512 Kbps

Channel(s) : 6 channels

Channel positions : Front: L C R, Side: L R, LFE

Sampling rate : 48.0 KHz

Bit depth : 16 bits

Compression mode : Lossy

Stream size : 476 MiB (7%)

Menu

00:00:00.000 : en:(01)00:00:00:000

00:06:23.091 : en:(02)00:06:23:091

00:13:01.864 : en:(03)00:13:01:864

00:19:02.641 : en:(04)00:19:02:641

00:24:57.454 : en:(05)00:24:57:454

00:30:30.578 : en:(06)00:30:30:578

00:36:48.497 : en:(07)00:36:48:497

00:43:36.280 : en:(08)00:43:36:280

00:46:46.053 : en:(09)00:46:46:053

00:54:31.476 : en:(10)00:54:31:476

01:02:46.095 : en:(11)01:02:46:095

01:10:23.552 : en:(12)01:10:23:552

01:16:27.207 : en:(13)01:16:27:207

01:24:34.319 : en:(14)01:24:34:319

01:29:29.113 : en:(15)01:29:29:113

01:36:31.535 : en:(16)01:36:31:535

01:43:19.568 : en:(17)01:43:19:568

01:49:42.909 : en:(18)01:49:42:909

01:58:11.876 : en:(19)01:58:11:876

02:05:55.422 : en:(20)02:05:55:422

Jeux Gratuit
15354131_1854970838071206_1069261547_o.png