Telecharger Crows Zero II [BLURAY 720p] French

BLURAY 720p | FRENCH

Crows Zero II

Crows Zero II

Crows Zero II

Origine du film : Japonais
Réalisateur : Takashi Miike
Acteurs : Shun Oguri, Kyôsuke Yabe, Haruma Miura
Genre : Action
Durée : 2h 13min
Année de production : 2009
Titre Original : Kurôzu zero II
Note spectateurs : Crows Zero II 4,1/5 (295)
Bande annonce :

0528ecee1140093da1024144bfc31219

18929540″>Cliquez-ici pour voir la bande annonce 0528ecee1140093da1024144bfc31219″> 18929540

0528ecee1140093da1024144bfc31219

Crows Zero II

Huit mois après les derniers événements, alors que Genji est sur le point d'être diplômé du lycée Suzuran, il se voit contraint de régler une dernière affaire avec une école rivale.

Nom de la release : Crows.Zero.II.2009.FRENCH.720p.BluRay.x264.AC3-NoTeam 21117″ style= »display:inline; »>

Crows Zero II

Qualité : BLURAY 720p
Format : MKV
Langue : Français
Découpé avec : Winrar
Nombre de fichiers : 7 Fichiers
Taille des fichiers : 1000 Mo 875 Mo
Taille totale : 6875 Mo

Crows Zero II

[Liens Interchangeables]

1fichier
Télécharger

Uptobox
Télécharger

Uploaded
Télécharger

Rapidgator
Télécharger

TurboBit
Télécharger

[1 lien PREMIUM]

1fichier
Télécharger

Uptobox
Télécharger

Uploaded
Télécharger

Rapidgator
Télécharger

TurboBit
Télécharger

NFO :

Afficher / Masquer le texte 4386cdc74e3979dcc83af43ad1b9a316″ class= »text_spoiler » style= »display:none; »>■General

Unique ID : 214624046931553956563587987825736879635 (0xA177167F1D2C8FC191025A7C6CB90E13)

Complete name : E:HDCrows Zero II.2009.FRENCH.720p.BluRay.x264.ac3-NoTeam.mkv

Format : Matroska

File size : 6.71 GiB

Duration : 2h 13mn

Overall bit rate : 7 215 Kbps

Movie name : CROWS_ZERO_0.Title3.BlurayRip

Encoded date : UTC 2011-01-01 18:16:48

Writing application : DVDFab

Writing library : libebml v0.7.8 libmatroska v0.8.1

Video

ID : 1

Format : AVC

Format/Info : Advanced Video Codec

Format profile : [email protected]

Format settings, CABAC : Yes

Format settings, ReFrames : 2 frames

Codec ID : V_MPEG4/ISO/AVC

Duration : 2h 13mn

Bit rate : 6 559 Kbps

Width : 1 280 pixels

Height : 536 pixels

Display aspect ratio : 2.35:1

Frame rate : 23.976 fps

Color space : YUV

Chroma subsampling : 4:2:0

Bit depth : 8 bits

Scan type : Progressive

Bits/(Pixel*Frame) : 0.399

Stream size : 6.10 GiB (91%)

Writing library : x264 core

Color primaries : BT.709-5, BT.1361, IEC 61966-2-4, SMPTE RP177

Transfer characteristics : BT.709-5, BT.1361

Matrix coefficients : BT.709-5, BT.1361, IEC 61966-2-4 709, SMPTE RP177

Audio

ID : 2

Format : AC-3

Format/Info : Audio Coding 3

Mode extension : CM (complete main)

Codec ID : A_AC3

Duration : 2h 13mn

Bit rate mode : Constant

Bit rate : 512 Kbps

Channel(s) : 6 channels

Channel positions : Front: L C R, Side: L R, LFE

Sampling rate : 48.0 KHz

Bit depth : 16 bits

Compression mode : Lossy

Stream size : 488 MiB (7%)

Menu

00:00:00.000 : en:(01)00:00:00:000

00:02:39.784 : en:(02)00:02:39:784

00:10:11.193 : en:(03)00:10:11:193

00:14:08.597 : en:(04)00:14:08:597

00:21:35.335 : en:(05)00:21:35:335

00:27:49.084 : en:(06)00:27:49:084

00:37:17.401 : en:(07)00:37:17:401

00:44:07.227 : en:(08)00:44:07:227

00:50:43.874 : en:(09)00:50:43:874

00:59:50.962 : en:(10)00:59:50:962

01:05:36.849 : en:(11)01:05:36:849

01:15:05.334 : en:(12)01:15:05:334

01:21:58.663 : en:(13)01:21:58:663

01:27:33.539 : en:(14)01:27:33:539

01:31:44.081 : en:(15)01:31:44:081

01:36:27.031 : en:(16)01:36:27:031

01:44:14.748 : en:(17)01:44:14:748

01:51:59.254 : en:(18)01:51:59:254

02:03:29.944 : en:(19)02:03:29:944

02:09:01.024 : en:(20)02:09:01:024

02:13:14.778 : en:(21)02:13:14:778

Jeux Gratuit
15354131_1854970838071206_1069261547_o.png