Telecharger Cyrano de Bergerac [BLURAY 720p] French

(TRUEFRENCH = Vraie voix française)

Qualité BLURAY 720p | TRUEFRENCH | son DTS

Cyrano de Bergerac

Cyrano de Bergerac

Origine du film : Français
Réalisateur : Jean-Paul Rappeneau
Acteurs : Gérard Depardieu, Anne Brochet, Vincent Perez
Genre : Comédie dramatique, Historique, Romance
Durée : 2h15min
Date de sortie : 28 mars 1990
Année de production : 1990
Distribué par : UGC Ph
Note spectateurs : Cyrano de Bergerac 3,8/5 (6 672)
Bande annonce :

62617b95d89c3f241919f1fa115f92f9

19543059″>Cliquez-ici pour voir la bande annonce 62617b95d89c3f241919f1fa115f92f9″> 19543059

62617b95d89c3f241919f1fa115f92f9

Cyrano de Bergerac

Les aventures du célèbre et turbulent cadet de Gascogne, amoureux de sa cousine, Roxane, vues par le réalisateur de « La Vie de château » et le scénariste Jean-Claude Carrière. « Il s’agissait de faire un film. Nous ne pouvions nous contenter d’une simple mise en images de la pièce. Nous voulions donner à cette histoire que nous aimions la dynamique et la tension d’un film. Le vrai pari du film, c’est que les personnages y parlent en vers. »
97116″ style= »display:inline; »>

Cyrano de Bergerac

Format : MKV
Découpé avec : Winrar

Cyrano de Bergerac

Cyrano.De.Bergerac.1990.FRENCH.720p.BluRay.x264-AiRLiNE

(5580 Mo)

[Liens Interchangeables entre hébergeurs: 5x 1000 Mo + 1x 580 Mo]

Uptobox
Télécharger

Uploaded
Télécharger

TurboBit
Télécharger

Rapidgator
Télécharger

Uplea
Télécharger

1fichier
Télécharger

[Liens Premium ]

Uptobox
Télécharger

Uploaded
Télécharger

TurboBit
Télécharger

Uplea
Télécharger

1fichier
Télécharger

NFO :

Afficher / Masquer le texte 6daba70db32588d8a22df4ad5484c676″ class= »text_spoiler » style= »display:none; »>Format version : Version 2
File size : 5.46 GiB
Duration : 2h 18mn
Overall bit rate : 5 659 Kbps
Encoded date : UTC 2012-01-23 12:43:10
Writing application : mkvmerge v5.2.1 (‘A Far Off Place’) built on Jan 2 2012 23:21:10
Writing library : libebml v1.2.3 + libmatroska v1.3.0

Video
ID : 1
Format : AVC
Format/Info : Advanced Video Codec
Format profile : [email protected]
Format settings, CABAC : Yes
Format settings, ReFrames : 5 frames
Muxing mode : Header stripping
Codec ID : V_MPEG4/ISO/AVC
Duration : 2h 18mn
Bit rate : 4 153 Kbps
Width : 1 200 pixels
Height : 720 pixels
Display aspect ratio : 1.667
Frame rate : 23.976 fps
Color space : YUV
Chroma subsampling : 4:2:0
Bit depth : 8 bits
Scan type : Progressive
Bits/(Pixel*Frame) : 0.200
Stream size : 3.89 GiB (71%)
Title : Cyrano de Bergerac – 720p
Writing library : x264 core 120 r2146 bcd41db
Encoding settings : cabac=1 / ref=5 / deblock=1:0:0 / analyse=0x3:0x133 / me=umh / subme=7 / psy=1 / psy_rd=1.00:0.00 / mixed_ref=1 / me_range=16 / chroma_me=1 / trellis=1 / 8x8dct=1 / cqm=0 / deadzone=21,11 / fast_pskip=0 / chroma_qp_offset=-2 / threads=12 / sliced_threads=0 / nr=0 / decimate=1 / interlaced=0 / bluray_compat=0 / constrained_intra=0 / bframes=3 / b_pyramid=2 / b_adapt=2 / b_bias=0 / direct=3 / weightb=1 / open_gop=0 / weightp=2 / keyint=240 / keyint_min=23 / scenecut=40 / intra_refresh=0 / rc_lookahead=60 / rc=2pass / mbtree=1 / bitrate=4153 / ratetol=1.0 / qcomp=0.60 / qpmin=10 / qpmax=51 / qpstep=4 / cplxblur=20.0 / qblur=0.5 / ip_ratio=1.40 / aq=1:1.00
Language : French
Default : Yes
Forced : No

Audio
ID : 2
Format : DTS
Format/Info : Digital Theater Systems
Muxing mode : Header stripping
Codec ID : A_DTS
Duration : 2h 18mn
Bit rate mode : Constant
Bit rate : 1 510 Kbps
Channel(s) : 6 channels
Channel positions : Front: L C R, Side: L R, LFE
Sampling rate : 48.0 KHz
Bit depth : 24 bits
Compression mode : Lossy
Stream size : 1.46 GiB (27%)
Title : FR-DTS 1510
Language : French
Default : Yes
Forced : No

Menu
00:00:00.000 : en:00:00:00.000
00:01:47.357 : en:00:01:47.357
00:10:09.400 : en:00:10:09.400
00:13:45.908 : en:00:13:45.908
00:17:52.488 : en:00:17:52.488
00:23:30.576 : en:00:23:30.576
00:27:28.605 : en:00:27:28.605
00:29:21.927 : en:00:29:21.927
00:35:28.126 : en:00:35:28.126
00:40:34.015 : en:00:40:34.015
00:47:38.856 : en:00:47:38.856
00:54:26.305 : en:00:54:26.305
00:57:50.967 : en:00:57:50.967
01:01:16.131 : en:01:01:16.131
01:08:53.212 : en:01:08:53.212
01:16:26.040 : en:01:16:26.040
01:22:35.284 : en:01:22:35.284
01:24:42.786 : en:01:24:42.786
01:34:49.017 : en:01:34:49.017
01:43:25.074 : en:01:43:25.074
01:53:29.720 : en:01:53:29.720
01:57:38.134 : en:01:57:38.134
01:59:37.420 : en:01:59:37.420
02:14:13.921 : en:02:14:13.921

Jeux Gratuit
15354131_1854970838071206_1069261547_o.png