Telecharger Dark Water [BLURAY 720p] French

BLURAY 720p | FRENCH (VFQ)

Dark Water

Dark Water

Dark Water

Origine du film : Américain
Réalisateur : Walter Salles
Acteurs : Jennifer Connelly, John C. Reilly, Tim Roth
Genre : Fantastique, Thriller
Durée : 1h45min
Date de sortie : 31 août 2005
Année de production : 2005
Distribué par : Buena Vista International
Note presse : Dark Water 2,6/5
Note spectateurs : Dark Water

; »>2,1/5 (2 005)
Bande annonce :

05b97211c994fa7919f0fe0617f472a8

18395851″>Cliquez-ici pour voir la bande annonce 05b97211c994fa7919f0fe0617f472a8″> 18395851

05b97211c994fa7919f0fe0617f472a8

Dark Water

Récemment séparée de son mari, Dahlia Williams s'est trouvé un nouveau job et un autre appartement. Elle est bien décidée à surmonter l'échec de son mariage et à se consacrer à sa fille, Ceci. Mais quand la séparation tourne à la bataille rangée pour la garde de l'enfant, la situation se complique.Son nouvel appartement, délabré et exigu, semble soudain prendre vie. Des bruits mystérieux et des phénomènes étranges la poussent à se demander qui est derrière tout cela. Et puis, il y a ces obsédantes infiltrations d'eau sombre…Essayant de garder le contrôle de sa vie, Dahlia, plus que jamais résolue à protéger sa fille, va tenter de percer le mystère…
52535″ style= »display:inline; »>

Dark Water

Qualité : BLURAY 720p
Format : MKV
Langue : Français
Découpé avec : Winrar
Nombre de fichiers : 5 Fichiers
Taille des fichiers : 1000 Mo + 152 Mo

Dark Water

[Liens Interchangeables]

Dark.Water.2005.FRENCH.720p.BluRay.x264.AC3-LCDS (4152 Mo)

Uptobox
Télécharger

Uplea
Télécharger

1fichier
Télécharger

Free
Télécharger

Uploaded
Télécharger

Rapidgator
Télécharger

TurboBit
Télécharger

[ 1 lien Premium ]

Uptobox
Télécharger

1fichier
Télécharger

Uploaded
Télécharger

TurboBit
Télécharger

NFO :

Afficher / Masquer le texte 6671834bb1b736550238b157e4d127d9″ class= »text_spoiler » style= »display:none; »>General
Complete name : Dark.Water.2005.FRENCH.720p.BluRay.x264.AC3-LCDS.mkv
Format : Matroska
Format version : Version 4 / Version 2
File size : 4.06 GiB
Duration : 1h 44mn
Overall bit rate : 5 546 Kbps

Video
ID : 1
Format : AVC
Format/Info : Advanced Video Codec
Format profile : [email protected]
Format settings, CABAC : Yes
Format settings, ReFrames : 9 frames
Codec ID : V_MPEG4/ISO/AVC
Duration : 1h 44mn
Bit rate : 5 225 Kbps
Width : 1 280 pixels
Height : 544 pixels
Display aspect ratio : 2.35:1
Frame rate mode : Constant
Frame rate : 23.976 fps
Color space : YUV
Chroma subsampling : 4:2:0
Bit depth : 8 bits
Scan type : Progressive
Bits/(Pixel*Frame) : 0.313
Stream size : 3.74 GiB (92%)
Title : Video
Writing library : x264 core
Default : Yes
Forced : No

Audio
ID : 2
Format : AC-3
Format/Info : Audio Coding 3
Mode extension : CM (complete main)
Format settings, Endianness : Big
Codec ID : A_AC3
Duration : 1h 44mn
Bit rate mode : Constant
Bit rate : 320 Kbps
Channel(s) : 6 channels
Channel positions : Front: L C R, Side: L R, LFE
Sampling rate : 48.0 KHz
Bit depth : 16 bits
Compression mode : Lossy
Stream size : 240 MiB (6%)
Title : Francais QC 5.1
Language : French
Default : Yes
Forced : No

Jeux Gratuit
15354131_1854970838071206_1069261547_o.png