Telecharger Day Watch [BLURAY 720p] French

Qualité BLURAY 720p | MULTiLANGUES

Day Watch

Day Watch

Origine du film : Russe
Réalisateur : Timur Bekmambetov
Acteurs : Konstantin Khabensky, Mariya Poroshina, Vladimir Menshov
Genre : Fantastique, Action, Thriller
Durée : 2h12min
Date de sortie : 23 janvier 2008
Année de production : 2006
Titre Original : Dnevnoy Dozor: Mel Sudbi
Distribué par : Twentieth Century Fox France
Note presse : Day Watch 1,8/5
Note spectateurs : Day Watch

; »>2,4/5 (640)
Bande annonce :

12c0a2b7994a3464d36e70f78b35f143

18791679″>Cliquez-ici pour voir la bande annonce 12c0a2b7994a3464d36e70f78b35f143″> 18791679

12c0a2b7994a3464d36e70f78b35f143

Day Watch

Moscou, de nos jours. Dans une cage d’escalier d’un immeuble ordinaire, une jeune femme est assassinée de sang-froid, mais on ne relève aucune trace de violence sur son corps.On découvre assez rapidement que cette femme était une « Autre de l’Ombre » et qu’elle était membre de Day Watch, une organisation secrète dirigée par un sombre et puissant sorcier dénommé Zavoulon. La trêve fragile, qu’avaient conclue la Lumière et l’Ombre et qui s’est maintenue pendant des siècles, est brisée – les « Autres de la Lumière » étant les principaux suspects.Guesser, le commandant de Night Watch, rassemble immédiatement ses troupes, un meurtre étant un événement grave et ses conséquences pouvant conduire à une guerre ouverte entre les forces de la Lumière et celles de l’Ombre. Night Watch doit réagir, mais Guesser doit préalablement découvrir où chacun des « Autres de la Lumière » se trouvait au moment du meurtre. Il s’avère que seul Anton Gorodetski n’a pas d’alibi à fournir…Anton continue de combattre les forces du mal. Alors qu’il tente de retrouver son fils, une nouvelle menace, plus terrifiante encore que ses combats passés, se fait jour…
98883″ style= »display:inline; »>

Day Watch

Format : MKV
Découpé avec : Winrar

Day Watch

Day Watch.2006.MULTI.720P.Bluray.x264-TBL

(12509 Mo)

[Liens Interchangeables entre hébergeurs: 12x 1000 Mo + 1x 509 Mo]

Uptobox
Télécharger

Uplea
Télécharger

1fichier
Télécharger

Uploaded
Télécharger

Rapidgator
Télécharger

TurboBit
Télécharger

[ Liens Premium ]

Uptobox
Télécharger

Uplea
Télécharger

1fichier
Télécharger

Uploaded
Télécharger

TurboBit
Télécharger

NFO :

Afficher / Masquer le texte 45406ffa6ea27f4ef50dad10fbf0e0b3″ class= »text_spoiler » style= »display:none; »>Day Watch.2006.MULTI.720P.Bluray.x264-TBL.mkv
Format : Matroska
Format version : Version 2
File size : 12.2 GiB
Duration : 2h 25mn
Overall bit rate : 12.0 Mbps
Encoded date : UTC 2014-09-21 13:40:43
Writing application : mkvmerge v7.0.0 (‘Where We Going’) 32bit built on Jun 9 2014 15:08:34
Writing library : libebml v1.3.0 + libmatroska v1.4.1
DURATION : 02:17:31.701000000
NUMBER_OF_FRAMES : 1313
NUMBER_OF_BYTES : 40845
_STATISTICS_WRITING_APP : mkvmerge v7.0.0 (‘Where We Going’) 32bit built on Jun 9 2014 15:08:34
_STATISTICS_WRITING_DATE_UTC : 2014-09-21 13:40:43
_STATISTICS_TAGS : BPS DURATION NUMBER_OF_FRAMES NUMBER_OF_BYTES

Video
ID : 1
Format : AVC
Format/Info : Advanced Video Codec
Format profile : [email protected]
Format settings, CABAC : Yes
Format settings, ReFrames : 9 frames
Codec ID : V_MPEG4/ISO/AVC
Duration : 2h 25mn
Bit rate : 10.8 Mbps
Width : 1 280 pixels
Height : 720 pixels
Display aspect ratio : 16:9
Frame rate mode : Constant
Frame rate : 23.976 fps
Color space : YUV
Chroma subsampling : 4:2:0
Bit depth : 8 bits
Scan type : Progressive
Bits/(Pixel*Frame) : 0.488
Stream size : 10.7 GiB (88%)
Writing library : x264 core 142 r2431 ac76440
Encoding settings : cabac=1 / ref=9 / deblock=1:-3:-3 / analyse=0x3:0x113 / me=umh / subme=11 / psy=1 / psy_rd=1.00:0.06 / mixed_ref=1 / me_range=128 / chroma_me=1 / trellis=2 / 8x8dct=1 / cqm=0 / deadzone=6,6 / fast_pskip=0 / chroma_qp_offset=1 / threads=6 / lookahead_threads=1 / sliced_threads=0 / slices=4 / nr=0 / decimate=0 / interlaced=0 / bluray_compat=0 / constrained_intra=0 / bframes=5 / b_pyramid=2 / b_adapt=2 / b_bias=0 / direct=1 / weightb=1 / open_gop=0 / weightp=2 / keyint=250 / keyint_min=25 / scenecut=40 / intra_refresh=0 / rc_lookahead=250 / rc=2pass / mbtree=1 / bitrate=10782 / ratetol=1.0 / qcomp=0.75 / qpmin=0 / qpmax=69 / qpstep=4 / cplxblur=20.0 / qblur=0.5 / vbv_maxrate=50000 / vbv_bufsize=50000 / nal_hrd=none / filler=0 / ip_ratio=1.40 / aq=2:1.00
Default : Yes
Forced : No
Color primaries : BT.709
Transfer characteristics : BT.709
Matrix coefficients : BT.709

Audio #1
ID : 2
Format : AC-3
Format/Info : Audio Coding 3
Mode extension : CM (complete main)
Format settings, Endianness : Big
Codec ID : A_AC3
Duration : 2h 25mn
Bit rate mode : Constant
Bit rate : 448 Kbps
Channel count : 6 channels
Channel positions : Front: L C R, Side: L R, LFE
Sampling rate : 48.0 KHz
Bit depth : 16 bits
Compression mode : Lossy
Stream size : 467 MiB (4%)
Title : Français
Language : French
Default : Yes
Forced : No

Audio #2
ID : 3
Format : DTS
Format/Info : Digital Theater Systems
Mode : 16
Format settings, Endianness : Big
Codec ID : A_DTS
Duration : 2h 25mn
Bit rate mode : Constant
Bit rate : 768 Kbps
Channel count : 6 channels
Channel positions : Front: L C R, Side: L R, LFE
Sampling rate : 48.0 KHz
Bit depth : 24 bits
Compression mode : Lossy
Stream size : 801 MiB (6%)
Title : Anglais
Language : English
Default : No
Forced : No

Text #1
ID : 4
Format : UTF-8
Codec ID : S_TEXT/UTF8
Codec ID/Info : UTF-8 Plain Text
Title : Français forcé
Language : French
Default : Yes
Forced : Yes

Text #2
ID : 5
Format : UTF-8
Codec ID : S_TEXT/UTF8
Codec ID/Info : UTF-8 Plain Text
Title : Français complet
Language : French
Default : No
Forced : No

Text #3
ID : 6
Format : UTF-8
Codec ID : S_TEXT/UTF8
Codec ID/Info : UTF-8 Plain Text
Title : Anglais
Language : English
Default : No
Forced : No

Jeux Gratuit
15354131_1854970838071206_1069261547_o.png