Telecharger Daybreakers [BLURAY 720p] French

Qualité BLURAY 720p | MULTiLANGUES

Daybreakers

Daybreakers

Daybreakers

Origine du film : Américain
Réalisateur : Peter Spierig
Acteurs : Ethan Hawke, Willem Dafoe, Sam Neill
Genre : Epouvante-horreur, Science fiction
Durée : 1h38min
Date de sortie : 3 mars 2010
Année de production : 2009
Distribué par : Metropolitan FilmExport
Note presse : Daybreakers 3,2/5
Note spectateurs : Daybreakers

; »>2,8/5 (3 159)
Bande annonce :

ea3fc9870369af1bb44126822df9fd76

18946802″>Cliquez-ici pour voir la bande annonce ea3fc9870369af1bb44126822df9fd76″> 18946802

ea3fc9870369af1bb44126822df9fd76

Daybreakers

En 2019, les vampires ont pris le contrôle de notre planète. Les humains ne sont plus qu’une petite minorité, entretenue uniquement pour nourrir la population dominante. Edward Dalton est un vampire qui travaille dans la recherche. Il refuse de se nourrir de sang humain et oeuvre sans relâche à la mise au point d’un substitut qui pourrait à la fois nourrir ses semblables et sauver les derniers spécimens d’hommes. Lorsqu’il rencontre Audrey, une jeune survivante humaine, il va découvrir un secret biologique qui peut tout changer. Désormais, fort d’un savoir que vampires et humains veulent s’approprier à tout prix, Edward va se retrouver au centre d’un affrontement absolu dont l’enjeu décidera de l’avenir des deux espèces…
84829″ style= »display:inline; »>

Daybreakers

Format : MKV
Découpé avec : Winrar
Sous-titres : Forcé pour les passages en langue étrangère.

Daybreakers

Daybreakers.2010.MULTi.720p.BluRay.x264-nirvanaj

(3660 Mo)

[Liens Interchangeables entre hébergeurs: 3x 1000 Mo + 1x 660 Mo]

Uptobox
Télécharger

Uploaded
Télécharger

TurboBit
Télécharger

Rapidgator
Télécharger

Uplea
Télécharger

1fichier
Télécharger

Liens Premium

Uptobox
Télécharger

Uploaded
Télécharger

TurboBit
Télécharger

Uplea
Télécharger

1fichier
Télécharger

NFO :

Afficher / Masquer le texte 89c601f6cd87180d8b0df1d5d8252050″ class= »text_spoiler » style= »display:none; »>General
——-

Complete name : Daybreakers BDrip-720p-nirvanaj.mkv
Format : Matroska
Format version : Version 2
File size : 2.66 GiB
Duration : 1h 37mn
Overall bit rate : 3 899 Kbps
Writing library : libebml v1.2.3 + libmatroska v1.3.0
Source video : Inconnue
Source audio : hdtftd

Video
—–

ID : 1
Format : AVC
Format/Info : Advanced Video Codec
Format profile : [email protected]
Format settings, CABAC : No
Format settings, ReFrames : 5 frames
Muxing mode : Header stripping
Codec ID : V_MPEG4/ISO/AVC
Duration : 1h 37mn
Bit rate : 3 072 Kbps
Width : 1 280 pixels
Height : 544 pixels
Display aspect ratio : 2.35:1
Frame rate mode : Variable
Frame rate : 23.976 fps
Color space : YUV
Chroma subsampling : 4:2:0
Bit depth : 8 bits
Scan type : Progressive
Bits/(Pixel*Frame) : 0.184
Stream size : 2.04 GiB (77%)
Writing library : x264 core 83 r1391 3d0f110
Default : Yes
Forced : No

Audio #1
——–

ID : 2
Format : AC-3
Format/Info : Audio Coding 3
Mode extension : CM (complete main)
Muxing mode : Header stripping
Codec ID : AC3
Duration : 1h 37mn
Bit rate mode : Constant
Bit rate : 448 Kbps
Channel(s) : 6 channels
Channel positions : Front: L C R, Side: L R, LFE
Sampling rate : 48.0 KHz
Bit depth : 16 bits
Compression mode : Lossy
Delay relative to video : 1s 888ms
Stream size : 313 MiB (11%)
Language : French
Default : Yes
Forced : No

Audio #2
——–

ID : 5
Format : AC-3
Format/Info : Audio Coding 3
Mode extension : CM (complete main)
Muxing mode : Header stripping
Codec ID : A_AC3
Duration : 1h 37mn
Bit rate mode : Constant
Bit rate : 384 Kbps
Channel(s) : 6 channels
Channel positions : Front: L C R, Side: L R, LFE
Sampling rate : 48.0 KHz
Bit depth : 16 bits
Compression mode : Lossy
Stream size : 269 MiB (10%)
Language : English
Default : No
Forced : No

Text #1
——-

ID : 3
Format : UTF-8
Codec ID : S_TEXT/UTF8
Codec ID/Info : UTF-8 Plain Text
Language : French
Default : No
Forced : No

Text #2
——-

ID : 4
Format : UTF-8
Codec ID : S_TEXT/UTF8
Codec ID/Info : UTF-8 Plain Text
Language : English
Default : No
Forced : No

Jeux Gratuit
15354131_1854970838071206_1069261547_o.png