Telecharger De l'or pour les braves [DVDRiP] French

(TRUEFRENCH = Vraie voix française)

Qualité BDRiP mkv | TRUEFRENCH

De l'or pour les braves

De l'or pour les braves

Origine du film : Américain, Yougoslave
Réalisateur : Brian G. Hutton
Acteurs : Clint Eastwood, Telly Savalas, Don Rickles
Genre : Guerre, Aventure, Comédie
Durée : 2h24min
Année de production : 1970
Titre Original : Kelly’s Heroes
Note spectateurs : De l'or pour les braves

; »>3,6/5 (569)
Bande annonce :

ff835c58d7552f11d021b30371d84800

19467096″>Cliquez-ici pour voir la bande annonce ff835c58d7552f11d021b30371d84800″> 19467096

ff835c58d7552f11d021b30371d84800

De l'or pour les braves

En 1944, près de Nancy, un colonel allemand est capturé par le lieutenant américain Kelly. Découvrant que son prisonnier est en possession de deux lingots d’or, il lui fait subir un interrogatoire au terme duquel sa victime fait une incroyable révélation : dans une banque à quelques 40 kilomètres de la ligne de front, les Allemands disposent d’un trésor de 16 millions de dollars… Kelly n’a alors plus qu’une idée en tête : s’en emparer, lui et ses hommes, pour leur propre compte.
94498″ style= »display:inline; »>

De l'or pour les braves

Format : MKV

De l'or pour les braves

De l’or pour les braves 1970 FRENCH.BRRip.x264.AC3-HuSh

(1420 Mo)

Uptobox
Télécharger

Uploaded
Télécharger

TurboBit
Télécharger

Rapidgator
Télécharger

Uplea
Télécharger

1fichier
Télécharger

NFO :

Afficher / Masquer le texte 2ca097d4a4453c3f5db55871494855f6″ class= »text_spoiler » style= »display:none; »>General

Unique ID : 193520788585874425036144676629451155813 (0x9196BF87683092BDB99A0845B56CA965)

Complete name : G:TorrentDe.L.Or.Pour.Les.Braves.1970.FRENCH.BRRip.x264.AC3-HuShDe.L.Or.Pour.Les.Braves.1970.FRENCH.BRRip.x264.AC3-HuSh.mkv

Format : Matroska

Format version : Version 4 / Version 2

File size : 1.42 GiB

Duration : 2h 23mn

Overall bit rate mode : Variable

Overall bit rate : 1 414 Kbps

Movie name : De.L.Or.Pour.Les.Braves.1970.FRENCH.BRRip.x264.AC3-HuSh

Encoded date : UTC 2013-08-25 09:01:54

Writing application : mkvmerge v6.3.0 (‘You can’t stop me!’) built on Jun 28 2013 20:09:41

Writing library : libebml v1.3.0 + libmatroska v1.4.0

Video

ID : 1

Format : AVC

Format/Info : Advanced Video Codec

Format profile : [email protected]

Format settings, CABAC : Yes

Format settings, ReFrames : 8 frames

Codec ID : V_MPEG4/ISO/AVC

Duration : 2h 23mn

Bit rate mode : Variable

Bit rate : 1 220 Kbps

Maximum bit rate : 17.5 Mbps

Width : 720 pixels

Height : 304 pixels

Display aspect ratio : 2.40:1

Original display aspect rat : 2.40:1

Frame rate mode : Constant

Frame rate : 23.976 fps

Color space : YUV

Chroma subsampling : 4:2:0

Bit depth : 8 bits

Scan type : Progressive

Bits/(Pixel*Frame) : 0.232

Stream size : 1.20 GiB (84%)

Writing library : x264 core 135 r2345

Encoding settings : cabac=1 / ref=8 / deblock=1:-1:-1 / analyse=0x3:0x133 / me=umh / subme=9 / psy=1 / psy_rd=1.00:0.00 / mixed_ref=1 / me_range=32 / chroma_me=1 / trellis=2 / 8x8dct=1 / cqm=0 / deadzone=21,11 / fast_pskip=0 / chroma_qp_offset=-2 / threads=3 / lookahead_threads=1 / sliced_threads=0 / nr=0 / decimate=1 / interlaced=0 / bluray_compat=0 / constrained_intra=0 / bframes=3 / b_pyramid=2 / b_adapt=2 / b_bias=0 / direct=3 / weightb=1 / open_gop=0 / weightp=2 / keyint=230 / keyint_min=23 / scenecut=40 / intra_refresh=0 / rc_lookahead=60 / rc=2pass / mbtree=1 / bitrate=1220 / ratetol=1.0 / qcomp=0.60 / qpmin=10 / qpmax=69 / qpstep=4 / cplxblur=20.0 / qblur=0.5 / vbv_maxrate=17500 / vbv_bufsize=17500 / nal_hrd=vbr / ip_ratio=1.40 / aq=1:1.00

Language : French

Default : Yes

Forced : No

Audio

ID : 2

Format : AC-3

Format/Info : Audio Coding 3

Mode extension : CM (complete main)

Format settings, Endianness : Big

Codec ID : A_AC3

Duration : 2h 23mn

Bit rate mode : Constant

Bit rate : 192 Kbps

Channel(s) : 1 channel

Channel positions : Front: C

Sampling rate : 48.0 KHz

Compression mode : Lossy

Stream size : 197 MiB (14%)

Title : French

Language : French

Default : Yes

Forced : No

Text #1

ID : 3

Format : UTF-8

Codec ID : S_TEXT/UTF8

Codec ID/Info : UTF-8 Plain Text

Title : English

Language : English

Default : No

Forced : No

Text #2

ID : 4

Format : UTF-8

Codec ID : S_TEXT/UTF8

Codec ID/Info : UTF-8 Plain Text

Title : French

Language : French

Default : No

Forced : No