Telecharger De père en flic [BLURAY 720p] French

Qualité BLURAY 720p | FRENCH | son DTS

De père en flic

De père en flic

Origine du film : Québecois
Réalisateur : Emile Gaudreault
Acteurs : Rémy Girard, Michel Côté, Louis-José Houde
Genre : Comédie
Durée : 1h47min
Année de production : 2009
Bande annonce :

fc047392035faec5e775445bde392873

18876055″>Cliquez-ici pour voir la bande annonce fc047392035faec5e775445bde392873″> 18876055

fc047392035faec5e775445bde392873

De père en flic

Jacques et son fils Marc sont deux policiers qui ne peuvent se supporter mais qui doivent travailler ensemble. Leur mission: sauver la vie d’un de leur collègue kidnappé par les motards. La réussite de leur mission passe par Me Charles Bérubé, l’avocat des motards qui est en pleine crise de conscience et semble mûr pour collaborer avec la police. Mais l’avocat est inapprochable. Jacques et Marc changent d’identité, deviennent agents immobilier pour essayer de se rapprocher de lui lors d’une thérapie père/fils en forêt.
Réussiront-ils à mettre Bérubé en confiance et le convaincre de dire tout ce qu’il sait?
« De père en flic » est une comédie policière classique tout en étant une comédie rocambolesque sur les relations père/fils.
102151″ style= »display:inline; »>

De père en flic

Format : MKV
Découpé avec : Winrar

De père en flic

De.Pere.En.Flic.2009.FRENCH.720p.BluRay.x264-SABR

(6483 Mo)

[Liens Interchangeables entre hébergeurs: 6x 1000 Mo + 1x 483 Mo]

Uptobox
Télécharger

Uplea
Télécharger

1fichier
Télécharger

Uploaded
Télécharger

Rapidgator
Télécharger

TurboBit
Télécharger

[ Liens Premium ]

Uptobox
Télécharger

Uplea
Télécharger

1fichier
Télécharger

Uploaded
Télécharger

TurboBit
Télécharger

NFO :

Afficher / Masquer le texte 30fb0e9192ce4b578b64695a3b750951″ class= »text_spoiler » style= »display:none; »>De.Pere.En.Flic.2009.FRENCH.720p.BluRay.x264-SABR.zone-telechargement.com.mkv
Format : Matroska
Format version : Version 4 / Version 2
File size : 6.33 GiB
Duration : 1h 46mn
Overall bit rate : 8 486 Kbps
Encoded date : UTC 2015-10-24 01:30:13
Writing application : mkvmerge v7.4.0 (‘Circles’) 64bit built on Dec 12 2014 12:19:56
Writing library : libebml v1.3.0 + libmatroska v1.4.1
DURATION : 01:46:48.854000000
NUMBER_OF_FRAMES : 600830
NUMBER_OF_BYTES : 1208869960
_STATISTICS_WRITING_APP : mkvmerge v7.4.0 (‘Circles’) 64bit built on Dec 12 2014 12:19:56
_STATISTICS_WRITING_DATE_UTC : 2015-10-24 01:30:13
_STATISTICS_TAGS : BPS DURATION NUMBER_OF_FRAMES NUMBER_OF_BYTES

Video
ID : 1
Format : AVC
Format/Info : Advanced Video Codec
Format profile : [email protected]
Format settings, CABAC : Yes
Format settings, ReFrames : 9 frames
Codec ID : V_MPEG4/ISO/AVC
Duration : 1h 46mn
Bit rate : 6 808 Kbps
Width : 1 280 pixels
Height : 546 pixels
Display aspect ratio : 2.35:1
Original display aspect ratio : 2.35:1
Frame rate mode : Constant
Frame rate : 23.976 fps
Color space : YUV
Chroma subsampling : 4:2:0
Bit depth : 8 bits
Scan type : Progressive
Bits/(Pixel*Frame) : 0.406
Stream size : 5.08 GiB (80%)
Writing library : x264 core 146 r2538kMod 121396c
Encoding settings : cabac=1 / ref=9 / deblock=1:-3:-3 / analyse=0x3:0x133 / me=umh / subme=11 / psy=1 / fade_compensate=0.00 / psy_rd=1.00:0.00 / mixed_ref=1 / me_range=32 / chroma_me=1 / trellis=2 / 8x8dct=1 / cqm=0 / deadzone=21,11 / fast_pskip=1 / chroma_qp_offset=-2 / threads=12 / lookahead_threads=3 / sliced_threads=0 / nr=0 / decimate=1 / interlaced=0 / bluray_compat=0 / constrained_intra=0 / fgo=0 / bframes=10 / b_pyramid=2 / b_adapt=2 / b_bias=0 / direct=3 / weightb=1 / open_gop=0 / weightp=2 / keyint=250 / keyint_min=23 / scenecut=40 / intra_refresh=0 / rc=crf / mbtree=0 / crf=16.0000 / qcomp=0.65 / qpmin=0 / qpmax=69 / qpstep=4 / ip_ratio=1.25 / pb_ratio=1.20 / aq=1:0.60
Language : French
Default : Yes
Forced : No
DURATION : 01:46:48.653000000
NUMBER_OF_FRAMES : 153654
NUMBER_OF_BYTES : 5587534118
_STATISTICS_WRITING_APP : mkvmerge v7.4.0 (‘Circles’) 64bit built on Dec 12 2014 12:19:56
_STATISTICS_WRITING_DATE_UTC : 2015-10-24 01:30:13
_STATISTICS_TAGS : BPS DURATION NUMBER_OF_FRAMES NUMBER_OF_BYTES

Audio
ID : 2
Format : DTS
Format/Info : Digital Theater Systems
Mode : 16
Format settings, Endianness : Big
Codec ID : A_DTS
Duration : 1h 46mn
Bit rate mode : Constant
Bit rate : 1 509 Kbps
Channel count : 6 channels
Channel positions : Front: L C R, Side: L R, LFE
Sampling rate : 48.0 KHz
Bit depth : 24 bits
Compression mode : Lossy
Stream size : 1.13 GiB (18%)
Language : French
Default : No
Forced : No

Jeux Gratuit
15354131_1854970838071206_1069261547_o.png