Telecharger Dead Rising: Watchtower [BLURAY 720p] French

(TRUEFRENCH = Vraie voix française)

Qualité BLURAY 720p | TRUEFRENCH

Dead Rising: Watchtower

Dead Rising: Watchtower

Dead Rising: Watchtower

Origine du film : Américain
Réalisateur : Zach Lipovsky
Acteurs : Jesse Metcalfe, Meghan Ory, Virginia Madsen
Genre : Action, Epouvante-horreur
Durée : 1h58min
Année de production : 2015

Dead Rising: Watchtower

Un vaccin gouvernemental échoue à stopper l’expansion d’une épidémie transformant les gens en zombies. La résistance s’organise, et clame que le gouvernement pourrait bien avoir une part de responsabilité.
93826″ style= »display:inline; »>

Dead Rising: Watchtower

Format : XviD

Dead Rising: Watchtower

Dead Rising Watchtower 2015 FRENCH 720p BluRay x264-JUSTFORFUN

(4196 Mo)

[Liens Interchangeables entre hébergeurs: 4x 1000 Mo + 1x 196 Mo]

Uptobox
Télécharger

Uplea
Télécharger

1fichier
Télécharger

Uploaded
Télécharger

Rapidgator
Télécharger

TurboBit
Télécharger

1 Lien Premium – 4.1 Go

Uptobox Premium
Télécharger

Uplea Premium
Télécharger

1fichier Premium
Télécharger

Uploaded Premium
Télécharger

TurboBit Premium
Télécharger

NFO :

Afficher / Masquer le texte 9b1f89b92f998019f6e36c4386f44f30″ class= »text_spoiler » style= »display:none; »>General
Unique ID : 215316428680786054219448138269700583462 (0xA1FC6F8D68C6E7A68F719C9A820EF026)
Complete name : Dead Rising Watchtower 2015 FRENCH 720p BluRay x264-JUSTFORFUN.mkv
Format : Matroska
Format version : Version 4 / Version 2
File size : 4.10 GiB
Duration : 1h 58mn
Overall bit rate : 4 968 Kbps
Encoded date : UTC 2015-08-06 09:15:53
Writing application : mkvmerge v7.8.0 (‘River Man’) 64bit built on Mar 27 2015 16:31:37
Writing library : libebml v1.3.1 + libmatroska v1.4.2
DURATION : 01:58:01.656000000
NUMBER_OF_FRAMES : 203321
NUMBER_OF_BYTES : 396572786
_STATISTICS_WRITING_APP : mkvmerge v7.8.0 (‘River Man’) 64bit built on Mar 27 2015 16:31:37
_STATISTICS_WRITING_DATE_UT : 2015-08-06 09:15:53
_STATISTICS_TAGS : BPS DURATION NUMBER_OF_FRAMES NUMBER_OF_BYTES

Video
ID : 1
Format : AVC
Format/Info : Advanced Video Codec
Format profile : [email protected]
Format settings, CABAC : Yes
Format settings, ReFrames : 5 frames
Codec ID : V_MPEG4/ISO/AVC
Duration : 1h 58mn
Bit rate : 4 520 Kbps
Width : 1 280 pixels
Height : 536 pixels
Display aspect ratio : 2.40:1
Frame rate mode : Constant
Frame rate : 23.976 fps
Color space : YUV
Chroma subsampling : 4:2:0
Bit depth : 8 bits
Scan type : Progressive
Bits/(Pixel*Frame) : 0.275
Stream size : 3.65 GiB (89%)
Writing library : x264 core 148 r2579 73ae2d1
Encoding settings : cabac=1 / ref=5 / deblock=1:0:0 / analyse=0x3:0x113 / me=umh / subme=8 / psy=1 / psy_rd=1.00:0.00 / mixed_ref=1 / me_range=16 / chroma_me=1 / trellis=1 / 8x8dct=1 / cqm=0 / deadzone=21,11 / fast_pskip=0 / chroma_qp_offset=-2 / threads=17 / lookahead_threads=2 / sliced_threads=0 / nr=0 / decimate=1 / interlaced=0 / bluray_compat=0 / constrained_intra=0 / bframes=3 / b_pyramid=2 / b_adapt=2 / b_bias=0 / direct=3 / weightb=1 / open_gop=0 / weightp=2 / keyint=250 / keyint_min=23 / scenecut=40 / intra_refresh=0 / rc_lookahead=50 / rc=2pass / mbtree=1 / bitrate=4520 / ratetol=1.0 / qcomp=0.60 / qpmin=0 / qpmax=69 / qpstep=4 / cplxblur=20.0 / qblur=0.5 / ip_ratio=1.40 / aq=1:1.00
Language : English
Default : Yes
Forced : No
_STATISTICS_WRITING_APP : mkvmerge v7.8.0 (‘River Man’) 64bit built on Mar 27 2015 16:31:37
_STATISTICS_WRITING_DATE_UT : 2015-08-06 09:15:53
_STATISTICS_TAGS : BPS DURATION NUMBER_OF_FRAMES NUMBER_OF_BYTES
DURATION : 01:58:05.912000000
NUMBER_OF_FRAMES : 169892
NUMBER_OF_BYTES : 4002511921

Audio
ID : 2
Format : AC-3
Format/Info : Audio Coding 3
Mode extension : CM (complete main)
Format settings, Endianness : Big
Codec ID : A_AC3
Duration : 1h 58mn
Bit rate mode : Constant
Bit rate : 448 Kbps
Channel(s) : 6 channels
Channel positions : Front: L C R, Side: L R, LFE
Sampling rate : 44.1 KHz
Compression mode : Lossy
Delay relative to video : 24ms
Stream size : 378 MiB (9%)
Language : French
Default : Yes
Forced : No

Menu
00:00:00.000 : en:00:00:00.000
00:09:31.529 : en:00:09:31.529
00:19:06.187 : en:00:19:06.187
00:28:03.098 : en:00:28:03.098
00:37:26.202 : en:00:37:26.202
00:47:03.904 : en:00:47:03.904
00:57:50.008 : en:00:57:50.008
01:06:13.094 : en:01:06:13.094
01:16:17.573 : en:01:16:17.573
01:25:09.896 : en:01:25:09.896
01:35:19.797 : en:01:35:19.797
01:44:24.341 : en:01:44:24.341