Telecharger Dead Silence [BLURAY 720p] French

(TRUEFRENCH = Vraie voix française)

BLURAY 720p | MULTiLANGUES (Avec TRUEFRENCH) | VFF + VO DTS 5.1

Dead Silence

Dead Silence

Dead Silence

Origine du film : Américain
Réalisateur : James Wan
Acteurs : Ryan Kwanten, Donnie Wahlberg, Bob Gunton
Genre : Epouvante-horreur, Thriller
Durée : 1h 30min
Date de sortie : 21 novembre 2007
Année de production : 2007
Distribué par : Paramount Pictures France
Note presse : Dead Silence 2,5/5
Note spectateurs : Dead Silence 2,9/5 (1 059)

Dead Silence

Un homme revient dans sa ville natale pour enquêter sur la mort mystérieuse de sa femme. Au fur et à mesure de ses recherches, il apprend que ce meutre pourrait avoir été commis par le fantôme d’une ventriloque continuant à vivre à travers ses marionnettes…

Nom de la release : Dead Silence 2007 MULTi TRUEFRENCH 720p BluRay x264-RiV3R 27328″ style= »display:inline; »>

Qualité : BLURAY 720p
Format : MKV
Sous-titre : Français
Découpé avec : Winrar
Nombre de fichiers : 5 Fichiers
Taille des fichiers : 999 Mo 480 Mo
Taille totale : 4476 Mo

[Liens Interchangeables]

1fichier
Télécharger

Uptobox
Télécharger

Free
Télécharger

Uploaded
Télécharger

Rapidgator
Télécharger

TurboBit
Télécharger

[ 1 lien Premium – 3,7 Go ]

1fichier Premium
Télécharger

Uptobox Premium
Télécharger

Free Premium
Télécharger

Uploaded Premium
Télécharger

Cloudzer Premium
Téléchager

Rapidgator Premium
Téléchager

TurboBit Premium
Télécharger

NFO :

Afficher / Masquer le texte a2db2a15293dd18aea24a6bc1c3f8c4a » class= »text_spoiler » style= »display:none; »>Source : BD Z2 FR
Video : x264 core 133 @3539 Kbps (crf=18.8)
Audio : VFF DTS 5.1 @768 Kbps VO DTS 5.1 @1510 Kbps
Sous-titres : Fr Forces Fr Complets
Date : 03/06/2013

General
Unique ID : 120494987469929275592588553939183270947 (0x5AA67D8E3DF17E16CF493E8CC24CFC23)
Complete name : Dead.Silence.2007.MULTi.TRUEFRENCH.720p.BluRay.x264-RiV3R.mkv
Format : Matroska
Format version : Version 4 / Version 2
File size : 3.79 GiB
Duration : 1h 31mn
Overall bit rate : 5 934 Kbps
Encoded date : UTC 2013-06-02 20:56:58
Writing application : mkvmerge v6.2.0 ('Promised Land') built on Apr 29 2013 07:50:39
Writing library : libebml v1.3.0 libmatroska v1.4.0

Video
ID : 1
Format : AVC
Format/Info : Advanced Video Codec
Format profile : [email protected]
Format settings, CABAC : Yes
Format settings, ReFrames : 12 frames
Codec ID : V_MPEG4/ISO/AVC
Duration : 1h 31mn
Bit rate : 3 539 Kbps
Width : 1 280 pixels
Height : 534 pixels
Display aspect ratio : 2.40:1
Frame rate mode : Constant
Frame rate : 23.976 fps
Color space : YUV
Chroma subsampling : 4:2:0
Bit depth : 8 bits
Scan type : Progressive
Bits/(Pixel*Frame) : 0.216
Stream size : 2.26 GiB (60%)
Writing library : x264 core 133
Encoding settings : cabac=1 / ref=12 / deblock=1:-3:-3 / analyse=0x3:0x133 / me=umh / subme=11 / psy=1 / psy_rd=1.00:0.30 / mixed_ref=1 / me_range=64 / chroma_me=1 / trellis=2 / 8x8dct=1 / cqm=0 / deadzone=6,6 / fast_pskip=0 / chroma_qp_offset=-4 / threads=6 / lookahead_threads=1 / sliced_threads=0 / nr=0 / decimate=1 / interlaced=0 / bluray_compat=0 / constrained_intra=0 / bframes=16 / b_pyramid=2 / b_adapt=2 / b_bias=0 / direct=3 / weightb=1 / open_gop=0 / weightp=2 / keyint=240 / keyint_min=24 / scenecut=40 / intra_refresh=0 / rc_lookahead=210 / rc=crf / mbtree=1 / crf=18.8 / qcomp=0.60 / qpmin=0 / qpmax=69 / qpstep=4 / vbv_maxrate=50000 / vbv_bufsize=50000 / crf_max=0.0 / nal_hrd=none / ip_ratio=1.40 / aq=2:1.00
Language : English
Default : Yes
Forced : No
Color primaries : BT.709
Transfer characteristics : BT.709
Matrix coefficients : BT.709

Audio #1
ID : 2
Format : DTS
Format/Info : Digital Theater Systems
Mode : 16
Format settings, Endianness : Big
Codec ID : A_DTS
Duration : 1h 31mn
Bit rate mode : Constant
Bit rate : 768 Kbps
Channel(s) : 6 channels
Channel positions : Front: L C R, Side: L R, LFE
Sampling rate : 48.0 KHz
Bit depth : 24 bits
Compression mode : Lossy
Stream size : 503 MiB (13%)
Language : French
Default : Yes
Forced : No

Audio #2
ID : 3
Format : DTS
Format/Info : Digital Theater Systems
Mode : 16
Format settings, Endianness : Big
Codec ID : A_DTS
Duration : 1h 31mn
Bit rate mode : Constant
Bit rate : 1 509 Kbps
Channel(s) : 6 channels
Channel positions : Front: L C R, Side: L R, LFE
Sampling rate : 48.0 KHz
Bit depth : 24 bits
Compression mode : Lossy
Stream size : 988 MiB (25%)
Language : English
Default : No
Forced : No

Text #1
ID : 4
Format : UTF-8
Codec ID : S_TEXT/UTF8
Codec ID/Info : UTF-8 Plain Text
Title : FR Forces
Language : French
Default : Yes
Forced : Yes

Text #2
ID : 5
Format : UTF-8
Codec ID : S_TEXT/UTF8
Codec ID/Info : UTF-8 Plain Text
Title : FR Complets
Language : French
Default : No
Forced : No

Menu
00:00:00.000 : en:End Titles
00:03:34.005 : en:Who's The Dummy
00:06:21.547 : en:One Left
00:12:26.203 : en:You Weren't the Last
00:16:15.015 : en:Long – Lost Relative
00:18:53.382 : en:A Clue From Henry
00:22:43.570 : en:Sins of the Father
00:28:45.932 : en:Don't Scream
00:30:56.646 : en:To Make the Perfect Doll
00:38:09.495 : en:No Alibi
00:44:57.820 : en:A Surprise for Jamie
00:48:35.037 : en:Mysterious Mail
00:54:05.200 : en:A Perfect Design
00:58:21.748 : en:Beware of the Stare
01:03:26.385 : en:Funeral Arrangements
01:08:44.703 : en:Raven's Fair
01:12:04.028 : en:Nothing Else to Tell
01:20:09.846 : en:Plagued By Death
01:24:58.093 : en:Billy
01:27:18.233 : en:Bury the Doll

Dead.Silence.2007.MULTi.TRUEFRENCH.1080p.BluRay.DTS.HDMA.x264-RiV3R

Source : BD Z2 FR
Video : x264 core 133 @10.9 Mbps (crf=18.8)
Audio : VFF DTS 5.1 @768 Kbps VO DTS HDMA 5.1 @3690 Kbps
Sous-titres : Fr Forces Fr Complets
Date : 03/06/2013

General
Unique ID : 20912246114171907141397349789129621313 (0xFBB8D5665B4640FE0E856597699BF41)
Complete name : Dead.Silence.2007.MULTi.TRUEFRENCH.1080p.BluRay.DTS.HDMA.x264-RiV3R.mkv
Format : Matroska
Format version : Version 4 / Version 2
File size : 9.94 GiB
Duration : 1h 31mn
Overall bit rate mode : Variable
Overall bit rate : 15.6 Mbps
Encoded date : UTC 2013-06-03 17:04:34
Writing application : mkvmerge v6.2.0 ('Promised Land') built on Apr 29 2013 07:50:39
Writing library : libebml v1.3.0 libmatroska v1.4.0

Video
ID : 1
Format : AVC
Format/Info : Advanced Video Codec
Format profile : [email protected]
Format settings, CABAC : Yes
Format settings, ReFrames : 5 frames
Codec ID : V_MPEG4/ISO/AVC
Duration : 1h 31mn
Width : 1 920 pixels
Height : 800 pixels
Display aspect ratio : 2.40:1
Frame rate mode : Constant
Frame rate : 23.976 fps
Color space : YUV
Chroma subsampling : 4:2:0
Bit depth : 8 bits
Scan type : Progressive
Writing library : x264 core 133
Encoding settings : cabac=1 / ref=5 / deblock=1:-3:-3 / analyse=0x3:0x133 / me=umh / subme=11 / psy=1 / psy_rd=1.00:0.30 / mixed_ref=1 / me_range=64 / chroma_me=1 / trellis=2 / 8x8dct=1 / cqm=0 / deadzone=6,6 / fast_pskip=0 / chroma_qp_offset=-4 / threads=6 / lookahead_threads=1 / sliced_threads=0 / nr=0 / decimate=1 / interlaced=0 / bluray_compat=0 / constrained_intra=0 / bframes=16 / b_pyramid=2 / b_adapt=2 / b_bias=0 / direct=3 / weightb=1 / open_gop=0 / weightp=2 / keyint=240 / keyint_min=24 / scenecut=40 / intra_refresh=0 / rc_lookahead=210 / rc=crf / mbtree=1 / crf=18.8 / qcomp=0.60 / qpmin=0 / qpmax=69 / qpstep=4 / vbv_maxrate=50000 / vbv_bufsize=50000 / crf_max=0.0 / nal_hrd=none / ip_ratio=1.40 / aq=2:1.00
Language : English
Default : Yes
Forced : No
Color primaries : BT.709
Transfer characteristics : BT.709
Matrix coefficients : BT.709

Audio #1
ID : 2
Format : DTS
Format/Info : Digital Theater Systems
Mode : 16
Format settings, Endianness : Big
Codec ID : A_DTS
Duration : 1h 31mn
Bit rate mode : Constant
Bit rate : 768 Kbps
Channel(s) : 6 channels
Channel positions : Front: L C R, Side: L R, LFE
Sampling rate : 48.0 KHz
Bit depth : 24 bits
Compression mode : Lossy
Stream size : 503 MiB (5%)
Language : French
Default : Yes
Forced : No

Audio #2
ID : 3
Format : DTS
Format/Info : Digital Theater Systems
Format profile : MA / Core
Mode : 16
Format settings, Endianness : Big
Codec ID : A_DTS
Duration : 1h 31mn
Bit rate mode : Variable
Bit rate : Unknown / 1 509 Kbps
Channel(s) : 6 channels
Channel positions : Front: L C R, Side: L R, LFE
Sampling rate : 48.0 KHz
Bit depth : 24 bits
Compression mode : Lossless / Lossy
Title : DTS HDMA @3690 Kbps
Language : English
Default : No
Forced : No

Text #1
ID : 4
Format : UTF-8
Codec ID : S_TEXT/UTF8
Codec ID/Info : UTF-8 Plain Text
Title : FR Forces
Language : French
Default : Yes
Forced : Yes

Text #2
ID : 5
Format : UTF-8
Codec ID : S_TEXT/UTF8
Codec ID/Info : UTF-8 Plain Text
Title : FR Complets
Language : French
Default : No
Forced : No

Menu
00:00:00.000 : en:End Titles
00:03:34.005 : en:Who's The Dummy
00:06:21.547 : en:One Left
00:12:26.203 : en:You Weren't the Last
00:16:15.015 : en:Long – Lost Relative
00:18:53.382 : en:A Clue From Henry
00:22:43.570 : en:Sins of the Father
00:28:45.932 : en:Don't Scream
00:30:56.646 : en:To Make the Perfect Doll
00:38:09.495 : en:No Alibi
00:44:57.820 : en:A Surprise for Jamie
00:48:35.037 : en:Mysterious Mail
00:54:05.200 : en:A Perfect Design
00:58:21.748 : en:Beware of the Stare
01:03:26.385 : en:Funeral Arrangements
01:08:44.703 : en:Raven's Fair
01:12:04.028 : en:Nothing Else to Tell
01:20:09.846 : en:Plagued By Death
01:24:58.093 : en:Billy
01:27:18.233 : en:Bury the Doll