Telecharger Dear White People [BLURAY 720p] French

(TRUEFRENCH = Vraie voix française)

Qualité BLURAY 720p | TRUEFRENCH

Dear White People

Dear White People

Origine du film : Américain
Réalisateur : Justin Simien
Acteurs : Tyler James Williams, Tessa Thompson, Kyle Gallner
Genre : Comédie
Durée : 1h48min
Date de sortie : 25 mars 2015
Année de production : 2014
Distribué par : Happiness Distribution
Note presse : Dear White People 3,5/5
Note spectateurs : Dear White People

; »>2,9/5 (660)
Bande annonce :

7b8c24d548e73cc12c9c4c898e8c61f5

19550806″>Cliquez-ici pour voir la bande annonce 7b8c24d548e73cc12c9c4c898e8c61f5″> 19550806

7b8c24d548e73cc12c9c4c898e8c61f5

Dear White People

La vie de quatre étudiants noirs dans l‘une des plus prestigieuses facultés américaines, où une soirée à la fois populaire et scandaleuse organisée par des étudiants blancs va créer la polémique. Dear White People est une comédie satirique sur comment être noir dans un monde de blancs.
94624″ style= »display:inline; »>

Dear White People

Format : MKV

Dear White People

Dear.White.People.2014.FRENCH.720p.BluRay.x264-JUSTFORFUN.

(3303 Mo)

[Liens Interchangeables entre hébergeurs: 3x 1000 Mo + 1x 303 Mo]

Uptobox
Télécharger

Uplea
Télécharger

1fichier
Télécharger

Uploaded
Télécharger

Rapidgator
Télécharger

TurboBit
Télécharger

1 Lien Premium – 3.2 Go

Uptobox Premium
Télécharger

Uplea Premium
Télécharger

1fichier Premium
Télécharger

Uploaded Premium
Télécharger

TurboBit Premium
Télécharger

NFO :

Afficher / Masquer le texte 78969359186f9aee1c8288b90af2e2ae » class= »text_spoiler » style= »display:none; »>General
Unique ID : 232782397167110341178476568896144523830 (0xAF204248C7BC8192A4E187868A59C236)
Complete name : Dear.White.People.2014.FRENCH.720p.BluRay.x264-JUSTFORFUN
Format : Matroska
Format version : Version 4 / Version 2
File size : 3.23 GiB
Duration : 1h 48mn
Overall bit rate : 4 259 Kbps
Encoded date : UTC 2015-08-12 17:09:13
Writing application : mkvmerge v7.3.0 (‘Nouages’) 64bit built on Oct 22 2014 18:53:34
Writing library : libebml v1.3.0 + libmatroska v1.4.1
_STATISTICS_WRITING_APP : mkvmerge v7.3.0 (‘Nouages’) 64bit built on Oct 22 2014 18:53:34
_STATISTICS_WRITING_DATE_UT : 2015-08-12 17:09:13
_STATISTICS_TAGS : BPS DURATION NUMBER_OF_FRAMES NUMBER_OF_BYTES
DURATION : 01:43:24.267000000
NUMBER_OF_FRAMES : 68
NUMBER_OF_BYTES : 2170

Video
ID : 1
Format : AVC
Format/Info : Advanced Video Codec
Format profile : [email protected]
Format settings, CABAC : Yes
Format settings, ReFrames : 9 frames
Codec ID : V_MPEG4/ISO/AVC
Duration : 1h 48mnBit rate : 3 726 Kbps
Width : 1 280 pixels
Height : 720 pixels
Display aspect ratio : 16:9
Frame rate mode : Constant
Frame rate : 23.976 fps
Color space : YUV
Chroma subsampling : 4:2:0
Bit depth : 8 bits
Scan type : Progressive
Bits/(Pixel*Frame) : 0.169
Stream size : 2.82 GiB (87%)
Writing library : x264 core 144 r2525kMod 40bb568
Encoding settings : cabac=1 / ref=9 / deblock=1:-3:-3 / analyse=0x3:0x133 / me=umh / subme=10 / psy=1 / fade_compensate=0.00 / psy_rd=1.08:0.00 / mixed_ref=1 / me_range=24 / chroma_me=1 / trellis=2 / 8x8dct=1 / cqm=0 / deadzone=21,11 / fast_pskip=1 / chroma_qp_offset=-2 / threads=12 / lookahead_threads=3 / sliced_threads=0 / nr=0 / decimate=1 / interlaced=0 / bluray_compat=0 / constrained_intra=0 / fgo=0 / bframes=11 / b_pyramid=2 / b_adapt=2 / b_bias=0 / direct=3 / weightb=1 / open_gop=0 / weightp=2 / keyint=250 / keyint_min=23 / scenecut=40 / intra_refresh=0 / rc=crf / mbtree=0 / crf=16.2000 / qcomp=0.65 / qpmin=0 / qpmax=69 / qpstep=4 / ip_ratio=1.30 / pb_ratio=1.20 / aq=3:0.68
Language : English
Default : Yes
Forced : No
Color range : Limited
Matrix coefficients : BT.709
_STATISTICS_WRITING_APP : mkvmerge v7.3.0 (‘Nouages’) 64bit built on Oct 22 2014 18:53:34
_STATISTICS_WRITING_DATE_UT : 2015-08-12 17:09:13
_STATISTICS_TAGS : BPS DURATION NUMBER_OF_FRAMES NUMBER_OF_BYTES
DURATION : 01:48:26.542000000
NUMBER_OF_FRAMES : 156001
NUMBER_OF_BYTES : 3099641685

Audio
ID : 2
Format : AC-3
Format/Info : Audio Coding 3
Mode extension : CM (complete main)
Format settings, Endianness : Big
Codec ID : A_AC3
Duration : 1h 48mn
Bit rate mode : Constant
Bit rate : 448 Kbps
Channel(s) : 6 channels
Channel positions : Front: L C R, Side: L R, LFE
Sampling rate : 48.0 KHz
Compression mode : Lossy
Delay relative to video : 24s 0ms
Stream size : 347 MiB (11%)
Language : French
Default : Yes
Forced : No

Text
ID : 3
Format : UTF-8
Codec ID : S_TEXT/UTF8
Codec ID/Info : UTF-8 Plain Text
Default : Yes
Forced : No

Menu
00:00:00.000 : en:Chapter 1
00:08:04.483 : en:Chapter 2
00:13:56.126 : en:Chapter 3
00:19:21.743 : en:Chapter 4
00:28:14.692 : en:Chapter 5
00:35:09.690 : en:Chapter 6
00:41:58.099 : en:Chapter 7
00:50:34.989 : en:Chapter 8
00:58:07.442 : en:Chapter 9
01:02:09.476 : en:Chapter 10
01:11:25.739 : en:Chapter 11
01:18:12.854 : en:Chapter 12
01:24:05.372 : en:Chapter 13
01:33:21.136 : en:Chapter 14
01:38:42.875 : en:Chapter 15
01:44:54.750 : en:Credits