Telecharger Delicatessen [BLURAY 720p] French

Qualité BLURAY 720p | FRENCH

Delicatessen

Delicatessen

Origine du film : Français
Réalisateur : Jean-Pierre Jeunet
Acteurs : Dominique Pinon, Karin Viard, Ticky Holgado
Genre : Comédie, Drame, Epouvante-horreur, Fantastique
Durée : 1h37min
Date de sortie : 17 avril 1991
Année de production : 1991
Note spectateurs : Delicatessen 3,7/5 (6 154)
Bande annonce :

066c0d32c5593faf47a5f2aa94dcfc88

18740960″>Cliquez-ici pour voir la bande annonce 066c0d32c5593faf47a5f2aa94dcfc88″> 18740960

066c0d32c5593faf47a5f2aa94dcfc88

Delicatessen

La vie des étranges habitants d’un immeuble de banlieue qui se dresse dans un immense terrain vague et qui tous vont se fournir chez le boucher-charcutier, à l’enseigne « Delicatessen ».
100608″ style= »display:inline; »>

Delicatessen

Format : MKV
Découpé avec : Winrar

Delicatessen

Delicatessen.1991.720p.BluRay.DTS.x264-ESiR

(6714 Mo)

[Liens Interchangeables entre hébergeurs: 6x 1000 Mo + 1x 714 Mo]

Uptobox
Télécharger

Uplea
Télécharger

1fichier
Télécharger

Uploaded
Télécharger

Rapidgator
Télécharger

TurboBit
Télécharger

[ Liens Premium ]

Uptobox
Télécharger

Uplea
Télécharger

1fichier
Télécharger

Uploaded
Télécharger

TurboBit
Télécharger

NFO :

Afficher / Masquer le texte 562b5798cc071ce4cb0885a63f9ea9e2″ class= »text_spoiler » style= »display:none; »>Delicatessen.1991.720p.BluRay.DTS.x264-ESiR.zone-telechargement.com.mkv
Format : Matroska
Format version : Version 4 / Version 2
File size : 6.56 GiB
Duration : 1h 39mn
Overall bit rate mode : Variable
Overall bit rate : 9 449 Kbps
Encoded date : UTC 2015-10-10 01:23:48
Writing application : mkvmerge v7.4.0 (‘Circles’) 64bit built on Dec 12 2014 12:19:56
Writing library : libebml v1.3.0 + libmatroska v1.4.1
DURATION : 01:26:58.330000000
NUMBER_OF_FRAMES : 782
NUMBER_OF_BYTES : 44071
_STATISTICS_WRITING_APP : mkvmerge v7.4.0 (‘Circles’) 64bit built on Dec 12 2014 12:19:56
_STATISTICS_WRITING_DATE_UTC : 2015-10-10 01:23:48
_STATISTICS_TAGS : BPS DURATION NUMBER_OF_FRAMES NUMBER_OF_BYTES
Attachment : Yes / Yes / Yes

Video
ID : 1
Format : AVC
Format/Info : Advanced Video Codec
Format profile : [email protected]
Format settings, CABAC : Yes
Format settings, ReFrames : 7 frames
Codec ID : V_MPEG4/ISO/AVC
Duration : 1h 39mn
Bit rate : 8 929 Kbps
Width : 1 280 pixels
Height : 692 pixels
Display aspect ratio : 1.85:1
Frame rate mode : Constant
Frame rate : 24.000 fps
Color space : YUV
Chroma subsampling : 4:2:0
Bit depth : 8 bits
Scan type : Progressive
Bits/(Pixel*Frame) : 0.420
Stream size : 6.06 GiB (92%)
Writing library : x264 core 104 r1677 19df41a
Encoding settings : cabac=1 / ref=8 / deblock=1:-3:-3 / analyse=0x3:0x133 / me=tesa / subme=10 / psy=1 / psy_rd=1.30:0.00 / mixed_ref=1 / me_range=24 / chroma_me=1 / trellis=2 / 8x8dct=1 / cqm=0 / deadzone=21,11 / fast_pskip=0 / chroma_qp_offset=-2 / threads=6 / sliced_threads=0 / nr=0 / decimate=0 / interlaced=0 / constrained_intra=0 / bframes=6 / b_pyramid=1 / b_adapt=2 / b_bias=0 / direct=3 / weightb=1 / open_gop=0 / weightp=2 / keyint=250 / keyint_min=24 / scenecut=40 / intra_refresh=0 / rc=2pass / mbtree=0 / bitrate=8929 / ratetol=1.0 / qcomp=0.60 / qpmin=10 / qpmax=30 / qpstep=4 / cplxblur=20.0 / qblur=0.5 / ip_ratio=1.40 / pb_ratio=1.30 / aq=1:0.70
Language : English
Default : Yes
Forced : No
DURATION : 01:39:20.991000000
NUMBER_OF_FRAMES : 143064
NUMBER_OF_BYTES : 6650846589
_STATISTICS_WRITING_APP : mkvmerge v7.4.0 (‘Circles’) 64bit built on Dec 12 2014 12:19:56
_STATISTICS_WRITING_DATE_UTC : 2015-10-10 01:23:48
_STATISTICS_TAGS : BPS DURATION NUMBER_OF_FRAMES NUMBER_OF_BYTES

Audio #1
ID : 2
Format : AC-3
Format/Info : Audio Coding 3
Mode extension : CM (complete main)
Format settings, Endianness : Big
Codec ID : A_AC3
Duration : 1h 39mn
Bit rate mode : Constant
Bit rate : 448 Kbps
Channel count : 2 channels
Channel positions : Front: L R
Sampling rate : 48.0 KHz
Bit depth : 16 bits
Compression mode : Lossy
Stream size : 318 MiB (5%)
Language : French
Default : Yes
Forced : No

Audio #2
ID : 4
Format : Vorbis
Format settings, Floor : 1
Codec ID : A_VORBIS
Duration : 1h 39mn
Bit rate mode : Variable
Bit rate : 80.0 Kbps
Channel count : 2 channels
Sampling rate : 48.0 KHz
Compression mode : Lossy
Stream size : 56.8 MiB (1%)
Title : Commentary
Writing library : libVorbis 1.1.1/1.1.2 (UTC 2005-03-04)
Language : French
Default : No
Forced : No

Text
ID : 3
Format : ASS
Codec ID : S_TEXT/ASS
Codec ID/Info : Advanced Sub Station Alpha
Compression mode : Lossless
Language : English
Default : Yes
Forced : No