Telecharger Délivre-nous du mal [BLURAY 720p] French

BLURAY 720p | FRENCH

Délivre-nous du mal

Délivre-nous du mal

Délivre-nous du mal

Origine du film : Américain
Réalisateur : Scott Derrickson
Acteurs : Eric Bana, Edgar Ramírez, Olivia Munn
Genre : Thriller, Epouvante-horreur
Durée : 1h59min
Date de sortie : 3 septembre 2014
Année de production : 2014
Titre Original : Deliver Us From Evil
Distribué par : Sony Pictures Releasing France
Note presse : Délivre-nous du mal 2,4/5
Note spectateurs : Délivre-nous du mal

; »>3,5/5 (982)
Bande annonce :

b67ba41f3f5888134c0fb01a771d8a47

19543589″>Cliquez-ici pour voir la bande annonce b67ba41f3f5888134c0fb01a771d8a47″> 19543589

b67ba41f3f5888134c0fb01a771d8a47

Délivre-nous du mal

La violence et la noirceur, le sergent Ralph Sarchie connaît bien. Flic dans le Bronx, il est chaque jour témoin du pire de la nature humaine. Ce qu’il endure a même fini par affecter sa relation avec sa femme, Jen, et leur petite fille, Christina. Pourtant, rien ne l’avait préparé à l’affaire que lui et son partenaire Butler vont découvrir. Dépassé, Sarchie va devoir s’allier à un prêtre renégat dont la foi a souvent vacillé, qui tente de le convaincre que les horribles événements qui se multiplient sont liés à des possessions démoniaques… Ensemble, le policier et le prêtre accumulent les preuves que le Mal est à l’œuvre, et Sarchie est forcé de remettre en cause tout ce en quoi il a toujours cru pour combattre les puissances occultes qui menacent la ville et sa famille…
60632″ style= »display:inline; »>

Délivre-nous du mal

Qualité : BLURAY 720p
Format : MKV
Langue : Français
Sous-titre : Français
Nombre de fichiers : 5 Fichiers
Taille des fichiers : 1000 Mo + 473 Mo

Délivre-nous du mal

Ps: Les liens sont interchangeables, prenez une partie de chaque hébergeur pour télécharger plusieurs fichiers en même temps.

Deliver.us.From.Evil.2014.FRENCH.720p.BluRay.x264-DEViL ( 4473 Mo)

Uptobox
Télécharger

Uplea
Upload en panne.

1fichier
Télécharger

Uploaded
Télécharger

Rapidgator
Télécharger

TurboBit
Télécharger

1 Lien Premium – 4.4 Go

Uptobox Premium
Télécharger

1fichier Premium
Télécharger

Uploaded Premium
Télécharger

TurboBit Premium
Télécharger

NFO :

Afficher / Masquer le texte 40345653bb74de8179fde0e95796e43d » class= »text_spoiler » style= »display:none; »>Deliver.us.From.Evil.2014.FRENCH.720p.BluRay.x264-DEViL.mkv
Subs : FR FORCED
Format : Matroska
Format version : Version 4 / Version 2
File size : 4.37 GiB
Duration : 1h 58mn
Overall bit rate : 5 281 Kbps
Encoded date : UTC 2014-10-11 12:20:00
Writing application : mkvmerge v7.0.0 (‘Where We Going’) 64bit built on Jun 9 2014 15:51:49
Writing library : libebml v1.3.0 + libmatroska v1.4.1
DURATION : 01:58:26.0160000
Video
ID : 1
Format : AVC
Format/Info : Advanced Video Codec
Format profile : [email protected]
Format settings, CABAC : Yes
Format settings, ReFrames : 4 frames
Codec ID : V_MPEG4/ISO/AVC
Duration : 1h 58mn
Bit rate : 4 833 Kbps
Width : 1 280 pixels
Height : 536 pixels
Display aspect ratio : 2.40:1
Frame rate mode : Constant
Frame rate : 23.976 fps
Color space : YUV
Chroma subsampling : 4:2:0
Bit depth : 8 bits
Scan type : Progressive
Bits/(Pixel*Frame) : 0.294
Stream size : 3.91 GiB (90%)
Writing library : x264 core 142 r2431 ac76440
Encoding settings : cabac=1 / ref=3 / deblock=1:-1:-1 / analyse=0x3:0x113 / me=hex / subme=7 / psy=1 / psy_rd=1.00:0.15 / mixed_ref=1 / me_range=16 / chroma_me=1 / trellis=1 / 8x8dct=1 / cqm=0 / deadzone=21,11 / fast_pskip=1 / chroma_qp_offset=-3 / threads=18 / lookahead_threads=3 / sliced_threads=0 / nr=0 / decimate=1 / interlaced=0 / bluray_compat=0 / constrained_intra=0 / bframes=3 / b_pyramid=2 / b_adapt=1 / b_bias=0 / direct=1 / weightb=1 / open_gop=0 / weightp=2 / keyint=240 / keyint_min=23 / scenecut=40 / intra_refresh=0 / rc_lookahead=40 / rc=2pass / mbtree=1 / bitrate=4833 / ratetol=1.0 / qcomp=0.60 / qpmin=0 / qpmax=69 / qpstep=4 / cplxblur=20.0 / qblur=0.5 / vbv_maxrate=62500 / vbv_bufsize=78125 / nal_hrd=none / filler=0 / ip_ratio=1.40 / aq=1:1.

Audio
ID : 2
Format : AC-3
Format/Info : Audio Coding 3
Mode extension : CM (complete main)
Format settings, Endianness : Big
Codec ID : A_AC3
Duration : 1h 58mn
Bit rate mode : Constant
Bit rate : 448 Kbps
Channel count : 6 channels
Channel positions : Front: L C R, Side: L R, LFE
Sampling rate : 48.0 KHz
Bit depth : 16 bits
Compression mode : Lossy
Stream size : 380 MiB (8%)
Title : FRENCH
Language : French
Default : Yes
Forced : No