Télécharger Destruction Day – Panique sur Seattle (TV) French

Qualité DVDRiP | FRENCH

Destruction Day - Panique sur Seattle (TV)

Destruction Day - Panique sur Seattle (TV)

Destruction Day - Panique sur Seattle (TV)

Origine du film : Américain
Réalisateur : Jason Bourque
Acteurs : Esai Morales, Ona Grauer, Jared Abrahamson
Genre : Science fiction
Durée : 1h 34min
Année de production : 2012
Titre Original : Seattle Superstorm
Note spectateurs : Destruction Day - Panique sur Seattle (TV) 2,8/5 (4)

Destruction Day - Panique sur Seattle (TV)

Un objet non identifié volant au-dessus de Seattle est abattu par l’armée, et déclenche par la suite une série de phénomènes météorologiques anormaux : orages, tornades et tremblements de terre. Tom Reynolds, scientifique de la NASA fraîchement arrivé dans la ville avec sa famille va devoir tout faire pour se sortir de ce chaos et sauver ceux qu’il aime.

Nom de la release : Seattle.Superstorm.2012.FRENCH.DVDRiP.XViD-PUTCH 21889″ style= »display:inline; »>

Qualité : DVDRiP
Format : XviD
Langue : Français
Taille totale : 700 Mo

Uptobox.com
Télécharger

Free
Télécharger

Uploaded.net
Télécharger

Rapidgator.net
Télécharger

TurboBit.net
Télécharger

Mega
Télécharger

NFO :

Afficher / Masquer le texte 16549f91a39ff3bd34b0a4ed4b1ce081″ class= »text_spoiler » style= »display:none; »>General
Complete name : Seattle.Superstorm.2012.FRENCH.DVDRiP.XViD-PUTCH.avi
Format : AVI
Format/Info : Audio Video Interleave
File size : 702 MiB
Duration : 1h 17mn
Overall bit rate : 1 274 Kbps
Writing application : VirtualDubMod 1.5.1.1a (build 1155/release)
Writing library : VirtualDubMod build 1155/release

Video
ID : 0
Format : MPEG-4 Visual
Format profile : Advanced [email protected]
Format settings, BVOP : 2
Format settings, QPel : No
Format settings, GMC : No warppoints
Format settings, Matrix : Default (H.263)
Muxing mode : Packed bitstream
Codec ID : XVID
Codec ID/Hint : XviD
Duration : 1h 17mn
Bit rate : 1 102 Kbps
Width : 640 pixels
Height : 272 pixels
Display aspect ratio : 2.35:1
Frame rate : 25.000 fps
Color space : YUV
Chroma subsampling : 4:2:0
Bit depth : 8 bits
Scan type : Progressive
Compression mode : Lossy
Bits/(Pixel*Frame) : 0.253
Stream size : 607 MiB (86%)
Writing library : XviD 1.1.2 (UTC 2006-11-01)

Audio
ID : 1
Format : MPEG Audio
Format version : Version 1
Format profile : Layer 3
Codec ID : 55
Codec ID/Hint : MP3
Duration : 1h 17mn
Bit rate mode : Variable
Bit rate : 159 Kbps
Channel(s) : 2 channels
Sampling rate : 48.0 KHz
Compression mode : Lossy
Stream size : 87.7 MiB (12%)
Alignment : Aligned on interleaves
Interleave, duration : 24 ms (0.60 video frame)
Interleave, preload duration : 383 ms