Telecharger Detachment [BLURAY 720p] French

BLURAY 720p | FRENCH | AC3

Detachment

Detachment

Detachment

Origine du film : Américain
Réalisateur : Tony Kaye
Acteurs : Adrien Brody, Marcia Gay Harden, James Caan
Genre : Drame
Durée : 1h 37min
Date de sortie : 1 février 2012
Année de production : 2011
Distribué par : Pretty Pictures
Note presse : Detachment 2,8/5
Bande annonce :

8c3bfcf4ffa98a21b894823138811344

19281885″>Cliquez-ici pour voir la bande annonce 8c3bfcf4ffa98a21b894823138811344″> 19281885

8c3bfcf4ffa98a21b894823138811344

Detachment

Henry Barthes est un professeur remplaçant. Il est assigné pendant trois semaines dans un lycée difficile de la banlieue new-yorkaise. Lui qui s’efforce de toujours prendre ses distances va voir sa vie bouleversée par son passage dans cet établissement…

Nom de la release : Detachment.2011.FRENCH.720p.BluRay.AC3.x264-Ganesh 13553″ style= »display:inline; »>

Qualité : BLURAY 720p
Format : MKV
Langue : Français
Sous-titre : Français
Nombre de fichiers : 7 Fichiers
Taille totale : 6250 Mo

[Liens Interchangeables]

Ps: Les liens sont interchangeables, prenez une partie de chaque hébergeur pour télécharger plusieurs fichiers en même temps. smile

TurboBit.net
Télécharger

Rapidgator.net
Télécharger

Uploaded.to
Télécharger

Uptobox.com
Télécharger

[1 Lien – 6.25 Go]

Uptobox.com Premium
Télécharger

DepositFiles Premium
Télécharger

TurboBit.net Premium
Télécharger

NFO :

Afficher / Masquer le texte 1b19a0aa5c285906af1de0cbb9b4db71″ class= »text_spoiler » style= »display:none; »>Detachment 2011 FRENCH 720p BluRay AC3 x264-Ganesh.mkv
Format : Matroska
Format version : Version 2
File size : 6.25 GiB
Duration : 1h 37mn
Overall bit rate : 9 157 Kbps
Writing application : HandBrake rev0
Writing library : libmkv 0.6.5

Video
ID : 1
Format : AVC
Format/Info : Advanced Video Codec
Format profile : [email protected]
Format settings, CABAC : Yes
Format settings, ReFrames : 4 frames
Codec ID : V_MPEG4/ISO/AVC
Duration : 1h 37mn
Bit rate : 8 527 Kbps
Width : 1 280 pixels
Height : 720 pixels
Display aspect ratio : 16:9
Frame rate mode : Variable
Frame rate : 23.976 fps
Color space : YUV
Chroma subsampling : 4:2:0
Bit depth : 8 bits
Scan type : Progressive
Bits/(Pixel*Frame) : 0.386
Stream size : 5.82 GiB (93%)
Writing library : x264 core 125
Encoding settings : cabac=1 / ref=4 / deblock=1:-3:-3 / analyse=0x1:0x111 / me=umh / subme=8 / psy=1 / psy_rd=1,00:0,00 / mixed_ref=1 / me_range=32 / chroma_me=1 / trellis=0 / 8x8dct=0 / cqm=0 / deadzone=21,11 / fast_pskip=1 / chroma_qp_offset=-2 / threads=12 / lookahead_threads=2 / sliced_threads=0 / nr=0 / decimate=1 / interlaced=0 / bluray_compat=0 / constrained_intra=0 / bframes=3 / b_pyramid=2 / b_adapt=1 / b_bias=0 / direct=1 / weightb=1 / open_gop=0 / weightp=1 / keyint=240 / keyint_min=24 / scenecut=40 / intra_refresh=0 / rc_lookahead=10 / rc=crf / mbtree=1 / crf=20,0 / qcomp=0,60 / qpmin=3 / qpmax=69 / qpstep=4 / ip_ratio=1,40 / aq=1:1,00
Language : English
Default : Yes
Forced : No
Color primaries : BT.709-5, BT.1361, IEC 61966-2-4, SMPTE RP177
Transfer characteristics : BT.709-5, BT.1361
Matrix coefficients : BT.709-5, BT.1361, IEC 61966-2-4 709, SMPTE RP177

Audio
ID : 2
Format : AC-3
Format/Info : Audio Coding 3
Mode extension : CM (complete main)
Codec ID : A_AC3
Duration : 1h 37mn
Bit rate mode : Constant
Bit rate : 448 Kbps
Channel(s) : 6 channels
Channel positions : Front: L C R, Side: L R, LFE
Sampling rate : 48.0 KHz
Bit depth : 16 bits
Compression mode : Lossy
Stream size : 313 MiB (5%)
Default : Yes
Forced : No