Telecharger Deux soeurs pour un roi [BLURAY 720p] French

(TRUEFRENCH = Vraie voix française)

Qualité BLURAY 720p | MULTiLANGUES (Avec TRUEFRENCH) | son DTS

Deux soeurs pour un roi

Deux soeurs pour un roi

Origine du film : Britannique, Américain
Réalisateur : Justin Chadwick
Acteurs : Natalie Portman, Scarlett Johansson, Eric Bana
Genre : Drame, Historique
Durée : 1h55min
Date de sortie : 2 avril 2008
Année de production : 2008
Titre Original : The Other Boleyn Girl
Distribué par : Wild Bunch Distribution
Note presse : Deux soeurs pour un roi 3,0/5
Note spectateurs : Deux soeurs pour un roi

; »>3,3/5 (4 707)
Bande annonce :

3d812f8f3785a50ae97f640de361b6eb

18798563″>Cliquez-ici pour voir la bande annonce 3d812f8f3785a50ae97f640de361b6eb »> 18798563

3d812f8f3785a50ae97f640de361b6eb

Deux soeurs pour un roi

Quand la rumeur se répand que le roi Henry VIII ne partage plus la couche de la reine Catherine, son épouse incapable de lui donner un héritier mâle, Sir Thomas Boleyn rêve de gagner la faveur royale grâce à sa fille aînée, Anne. L’ambitieux projet de Sir Thomas est cependant quelque peu contrarié quand le roi s’éprend de son autre fille, Mary.
102181″ style= »display:inline; »>

Deux soeurs pour un roi

Format : MKV
Découpé avec : Winrar

Deux soeurs pour un roi

The.Other.Boleyn.Girl.2008.MULTi.TRUEFRENCH.720p.BluRay.x264-RiV3R

(4263 Mo)

[Liens Interchangeables entre hébergeurs: 4x 1000 Mo + 1x 263 Mo]

Uptobox
Télécharger

Uplea
Télécharger

1fichier
Télécharger

Uploaded
Télécharger

Rapidgator
Télécharger

TurboBit
Télécharger

[ Liens Premium ]

Uptobox
Télécharger

Uplea
Télécharger

1fichier
Télécharger

Uploaded
Télécharger

TurboBit
Télécharger

NFO :

Afficher / Masquer le texte f054803a810adc7729bbee6be743ef37″ class= »text_spoiler » style= »display:none; »>The Other Boleyn Girl 2008 MULTi TRUEFRENCH 720p BluRay x264-RiV3R.zone-telechargement.com.mkv
Format : Matroska
Format version : Version 4 / Version 2
File size : 4.16 GiB
Duration : 1h 55mn
Overall bit rate : 5 157 Kbps
Encoded date : UTC 2013-05-26 11:08:59
Writing application : mkvmerge v6.2.0 (‘Promised Land’) built on Apr 29 2013 07:50:39
Writing library : libebml v1.3.0 + libmatroska v1.4.0

Video
ID : 1
Format : AVC
Format/Info : Advanced Video Codec
Format profile : [email protected]
Format settings, CABAC : Yes
Format settings, ReFrames : 12 frames
Codec ID : V_MPEG4/ISO/AVC
Duration : 1h 55mn
Bit rate : 2 778 Kbps
Width : 1 280 pixels
Height : 692 pixels
Display aspect ratio : 1.85:1
Frame rate mode : Constant
Frame rate : 23.976 fps
Color space : YUV
Chroma subsampling : 4:2:0
Bit depth : 8 bits
Scan type : Progressive
Bits/(Pixel*Frame) : 0.131
Stream size : 2.24 GiB (54%)
Writing library : x264 core 132
Encoding settings : cabac=1 / ref=12 / deblock=1:-3:-3 / analyse=0x3:0x133 / me=umh / subme=11 / psy=1 / psy_rd=1.00:0.00 / mixed_ref=1 / me_range=64 / chroma_me=1 / trellis=2 / 8x8dct=1 / cqm=0 / deadzone=6,6 / fast_pskip=0 / chroma_qp_offset=-2 / threads=6 / lookahead_threads=1 / sliced_threads=0 / nr=0 / decimate=1 / interlaced=0 / bluray_compat=0 / constrained_intra=0 / bframes=16 / b_pyramid=2 / b_adapt=2 / b_bias=0 / direct=3 / weightb=1 / open_gop=0 / weightp=2 / keyint=240 / keyint_min=24 / scenecut=40 / intra_refresh=0 / rc_lookahead=240 / rc=crf / mbtree=1 / crf=18.8 / qcomp=0.60 / qpmin=0 / qpmax=69 / qpstep=4 / vbv_maxrate=50000 / vbv_bufsize=50000 / crf_max=0.0 / nal_hrd=none / ip_ratio=1.40 / aq=2:1.00
Language : English
Default : Yes
Forced : No
Color range : Limited
Color primaries : BT.709
Transfer characteristics : BT.709
Matrix coefficients : BT.709

Audio #1
ID : 2
Format : DTS
Format/Info : Digital Theater Systems
Mode : 16
Format settings, Endianness : Big
Codec ID : A_DTS
Duration : 1h 55mn
Bit rate mode : Constant
Bit rate : 768 Kbps
Channel(s) : 6 channels
Channel positions : Front: L C R, Side: L R, LFE
Sampling rate : 48.0 KHz
Bit depth : 24 bits
Compression mode : Lossy
Stream size : 635 MiB (15%)
Language : French
Default : Yes
Forced : No

Audio #2
ID : 3
Format : DTS
Format/Info : Digital Theater Systems
Mode : 16
Format settings, Endianness : Big
Codec ID : A_DTS
Duration : 1h 55mn
Bit rate mode : Constant
Bit rate : 1 509 Kbps
Channel(s) : 6 channels
Channel positions : Front: L C R, Side: L R, LFE
Sampling rate : 48.0 KHz
Bit depth : 24 bits
Compression mode : Lossy
Stream size : 1.22 GiB (29%)
Language : English
Default : No
Forced : No

Text #1
ID : 4
Format : UTF-8
Codec ID : S_TEXT/UTF8
Codec ID/Info : UTF-8 Plain Text
Title : FR Forces
Language : French
Default : Yes
Forced : Yes

Text #2
ID : 5
Format : UTF-8
Codec ID : S_TEXT/UTF8
Codec ID/Info : UTF-8 Plain Text
Title : FR Complets
Language : French
Default : No
Forced : No

Jeux Gratuit
15354131_1854970838071206_1069261547_o.png