Telecharger Dias de Gracia [BLURAY 720p] French

(TRUEFRENCH = Vraie voix française)

BLURAY 720p | MULTiLANGUES (Avec TRUEFRENCH) | DTS

Dias de Gracia

Dias de Gracia

Dias de Gracia

Origine du film : Français, mexicain
Réalisateur : Everardo Gout
Acteurs : Tenoch Huerta, Kristian Ferrer, Dolores Heredia
Genre : Thriller, Policier
Durée : 2h 13min
Date de sortie : 13 juin 2012
Année de production : 2011
Distribué par : ARP Sélection
Note presse : Dias de Gracia 2,6/5
Note spectateurs : Dias de Gracia 3,1/5 (110)
Bande annonce :

932ab72ebad5da204bb8fc80a6563e29

19217819″>Cliquez-ici pour voir la bande annonce 932ab72ebad5da204bb8fc80a6563e29″> 19217819

932ab72ebad5da204bb8fc80a6563e29

Dias de Gracia

Mexico. 2002, 2006, 2010.Trois destinées, durant trente jours, pendant trois Coupes du Monde de football. Trois façons de se battre pour survivre.

Nom de la release : Dias.de.Gracia.2011.Multi.720p.DTS.5.1.BluRay.x264-STEAL 27273″ style= »display:inline; »>

Qualité : BLURAY 720p
Format : MKV
Sous-titre : Français
Découpé avec : Winrar
Nombre de fichiers : 8 Fichiers
Taille des fichiers : 1000 Mo 842 Mo
Taille totale : 7842 Mo

[8 Liens Interchangeables : 7 x 1000 Mo 1 x 842 Mo]

1fichier
Télécharger

Uptobox
Télécharger

Free
Télécharger

Uploaded
Télécharger

Rapidgator
Télécharger

TurboBit
Télécharger

[2 liens PREMIUM : 1 x 4 GB 1 x 3.65 GB]

Uploaded
Partie 1
Partie 2

[1 lien PREMIUM : 1 x 7.65 GB]

1fichier
Télécharger

Uptobox
Télécharger

TurboBit
Télécharger

NFO :

Afficher / Masquer le texte 090227dca7f31eaae1aedb6be2238e0d » class= »text_spoiler » style= »display:none; »>General
Unique ID : 224346153622737321317192341952490739182 (0xA8C77F5D4663819AB2266E2B781195EE)
Complete name : D:DIAS DE GRACIA 2011 VFF Multi DTS 5.1 BluRay x264 720p-STEAL.mkv
Format : Matroska
File size : 7.66 GiB
Duration : 2h 11mn
Overall bit rate : 8 318 Kbps
Encoded date : UTC 2013-06-02 17:45:50
Writing application : mkvmerge v6.2.0 ('Promised Land') built on Apr 28 2013 12:22:01
Writing library : libebml v1.3.0 libmatroska v1.4.0

Video
ID : 1
Format : AVC
Format/Info : Advanced Video Codec
Format profile : [email protected]
Format settings, CABAC : Yes
Format settings, ReFrames : 9 frames
Codec ID : V_MPEG4/ISO/AVC
Duration : 2h 11mn
Bit rate : 5 300 Kbps
Width : 1 280 pixels
Height : 720 pixels
Display aspect ratio : 16:9
Frame rate : 23.976 fps
Color space : YUV
Chroma subsampling : 4:2:0
Bit depth : 8 bits
Scan type : Progressive
Bits/(Pixel*Frame) : 0.240
Stream size : 4.73 GiB (62%)
Title : DIAS DE GRACIA 2011 High [email protected] Resolution 1280p/ 720p Frame rate 23.976 fps Release ░V░Eyes
Writing library : x264 core 130 r2273 b3065e6
Encoding settings : cabac=1 / ref=9 / deblock=1:-3:-3 / analyse=0x3:0x113 / me=umh / subme=11 / psy=1 / psy_rd=0.90:0.02 / mixed_ref=1 / me_range=128 / chroma_me=1 / trellis=2 / 8x8dct=1 / cqm=0 / deadzone=21,11 / fast_pskip=0 / chroma_qp_offset=-2 / threads=18 / lookahead_threads=3 / sliced_threads=0 / nr=0 / decimate=1 / interlaced=0 / bluray_compat=0 / constrained_intra=0 / bframes=8 / b_pyramid=2 / b_adapt=2 / b_bias=0 / direct=1 / weightb=1 / open_gop=1 / weightp=2 / keyint=240 / keyint_min=23 / scenecut=40 / intra_refresh=0 / rc_lookahead=240 / rc=2pass / mbtree=1 / bitrate=5300 / ratetol=1.0 / qcomp=0.60 / qpmin=0 / qpmax=69 / qpstep=4 / cplxblur=20.0 / qblur=0.5 / vbv_maxrate=50000 / vbv_bufsize=50000 / nal_hrd=none / ip_ratio=1.40 / aq=2:1.00
Language : English
Color primaries : BT.709-5, BT.1361, IEC 61966-2-4, SMPTE RP177
Transfer characteristics : BT.709-5, BT.1361
Matrix coefficients : BT.709-5, BT.1361, IEC 61966-2-4 709, SMPTE RP177

Audio #1
ID : 2
Format : DTS
Format/Info : Digital Theater Systems
Codec ID : A_DTS
Duration : 2h 11mn
Bit rate mode : Constant
Bit rate : 1 510 Kbps
Channel(s) : 6 channels
Channel positions : Front: L C R, Side: L R, LFE
Sampling rate : 48.0 KHz
Bit depth : 16 bits
Compression mode : Lossy
Stream size : 1.39 GiB (18%)
Title : VFF DTS 5.1_1509 kbps 16-bit 48khz
Language : French

Audio #2
ID : 3
Format : DTS
Format/Info : Digital Theater Systems
Codec ID : A_DTS
Duration : 2h 11mn
Bit rate mode : Constant
Bit rate : 1 510 Kbps
Channel(s) : 6 channels
Channel positions : Front: L C R, Side: L R, LFE
Sampling rate : 48.0 KHz
Bit depth : 16 bits
Compression mode : Lossy
Stream size : 1.39 GiB (18%)
Title : V.O DTS 5.1_1509 kbps 16-bit 48khz
Language : Spanish

Text #1
ID : 4
Format : UTF-8
Codec ID : S_TEXT/UTF8
Codec ID/Info : UTF-8 Plain Text
Title : Sous-titres Franτais forcΘs.SRT
Language : French

Text #2
ID : 5
Format : UTF-8
Codec ID : S_TEXT/UTF8
Codec ID/Info : UTF-8 Plain Text
Title : Sous-titres Franτais complets.SRT
Language : French

Menu
00:00:00.000 : es: 01
00:10:41.683 : es: 02
00:19:36.217 : es: 03
00:31:27.511 : es: 04
00:41:26.359 : es: 05
00:53:25.702 : es: 06
01:01:55.378 : es: 07
01:15:22.935 : es: 08
01:25:08.145 : es: 09
01:32:50.023 : es: 10
01:44:27.845 : es: 11
01:54:38.789 : es: 12
02:04:23.623 : es: 13

DIAS DE GRACIA 2011 VFF Multi DTS 5.1 BluRay x264 720p-STEAL
[Information] [09/05/2013 01:15:53] Standard error stream

-[NoImage] avs [info]: 1280x720p 1:1 @ 2500000/104271 fps (cfr)
-[NoImage] x264 [info]: using SAR=1/1
-[NoImage] x264 [info]: using cpu capabilities: MMX2 SSE2Fast SSSE3 SSE4.2 AVX
-[NoImage] x264 [info]: profile High, level 4.1
-[NoImage]
-[NoImage] x264 [info]: frame I:1140 Avg QP:13.94 size:102084
-[NoImage] x264 [info]: frame P:45421 Avg QP:17.09 size: 42384
-[NoImage] x264 [info]: frame B:143069 Avg QP:19.02 size: 22339
-[NoImage] x264 [info]: consecutive B-frames: 3.3% 6.4% 9.5% 16.2% 17.2% 34.9% 6.2% 2.9% 3.5%
-[NoImage] x264 [info]: mb I I16..4: 30.5% 48.6% 20.9%
-[NoImage] x264 [info]: mb P I16..4: 0.7% 9.9% 0.6% P16..4: 20.4% 23.3% 7.2% 0.0% 0.0% skip:37.9%
-[NoImage] x264 [info]: mb B I16..4: 0.1% 3.1% 0.1% B16..8: 26.7% 15.5% 3.3% direct: 4.0% skip:47.3% L0:43.8% L1:44.8% BI:11.4%
-[NoImage] x264 [info]: 8×8 transform intra:87.4% inter:61.6%
-[NoImage] x264 [info]: coded y,uvDC,uvAC intra: 90.9% 85.8% 74.0% inter: 26.2% 18.4% 6.4%
-[NoImage] x264 [info]: i16 v,h,dc,p: 21% 39% 27% 12%
-[NoImage] x264 [info]: i8 v,h,dc,ddl,ddr,vr,hd,vl,hu: 7% 8% 11% 10% 14% 12% 13% 11% 14%
-[NoImage] x264 [info]: i4 v,h,dc,ddl,ddr,vr,hd,vl,hu: 8% 29% 11% 6% 10% 8% 9% 7% 10%
-[NoImage] x264 [info]: i8c dc,h,v,p: 43% 23% 14% 20%
-[NoImage] x264 [info]: Weighted P-Frames: Y:3.0% UV:1.1%
-[NoImage] x264 [info]: ref P L0: 45.6% 8.3% 18.8% 7.2% 6.0% 5.2% 4.0% 2.2% 2.3% 0.5% 0.0%
-[NoImage] x264 [info]: ref B L0: 71.3% 13.0% 6.8% 3.3% 2.3% 1.9% 1.0% 0.3%
-[NoImage] x264 [info]: ref B L1: 91.9% 8.1%
-[NoImage] x264 [info]: kb/s:5297.69
-[NoImage] encoded 189630 frames, 5.18 fps, 5297.69 kb/s