Telecharger Dick Tracy [BLURAY 720p] French

BLURAY 720p | FRENCH

Dick Tracy

Dick Tracy

Dick Tracy

Origine du film : Américain
Réalisateur : Warren Beatty
Acteurs : Warren Beatty, Al Pacino, Madonna
Genre : Policier, Action
Durée : 1h 47min
Date de sortie : 26 septembre 1990
Année de production : 1990
Distribué par : Warner Bros. France
Note spectateurs : Dick Tracy 2,4/5 (688)

Dick Tracy

La célèbre bande dessinée qui a tenu en haleine des générations d’Américains depuis 1931 portée à l’écran avec des bons vraiment bons, dont le séduisant et incorruptible policier Dick Tracy, et des méchants vraiment méchants.

Nom de la release : Dick.Tracy.1990.MULTI.720p.BluRay.x264-MaxHD 20697″ style= »display:inline; »>

Qualité : BLURAY 720p
Format : MKV
Langue : Français
Découpé avec : Winrar
Nombre de fichiers : 4 Fichiers
Taille des fichiers : 999 Mo 818 Mo
Taille totale : 3800 Mo

[4 Liens Interchangeables]

1fichier.com
Télécharger

Uptobox.com
Télécharger

Free
Télécharger

Uploaded.net
Télécharger

Rapidgator.net
Télécharger

TurboBit.net
Télécharger

[ 1 lien Premium – 3,8 Go]

1fichier.com Premium
Télécharger

Uptobox.com Premium
Télécharger

Free Premium
Télécharger

TurboBit.net Premium
Upload en cour…

BayFiles Premium
Télécharger

Uploaded.net Premium
Télécharger

NFO :

Afficher / Masquer le texte 47a7774394895d6f2c195e35a798aa9d » class= »text_spoiler » style= »display:none; »>General
Unique ID : 185710217213367506402166513328588387585 (0x8BB67CA0F4A5287CA6C889677328F501)
Complete name : Dick.Tracy.1990.MULTI.720p.BluRay.x264-MaxHD.mkv
Format : Matroska
Format version : Version 2
File size : 3.73 GiB
Duration : 1h 45mn
Overall bit rate : 5 076 Kbps
Encoded date : UTC 2013-02-06 21:22:21
Writing application : mkvmerge v5.6.0 ('Kenya Kane') built on May 27 2012 16:44:04
Writing library : libebml v1.2.3 libmatroska v1.3.0

Video
ID : 1
Format : AVC
Format/Info : Advanced Video Codec
Format profile : [email protected]
Format settings, CABAC : Yes
Format settings, ReFrames : 5 frames
Muxing mode : Header stripping
Codec ID : V_MPEG4/ISO/AVC
Duration : 1h 45mn
Bit rate : 4 437 Kbps
Width : 1 280 pixels
Height : 696 pixels
Display aspect ratio : 1.85:1
Frame rate mode : Constant
Frame rate : 23.976 fps
Color space : YUV
Chroma subsampling : 4:2:0
Bit depth : 8 bits
Scan type : Progressive
Bits/(Pixel*Frame) : 0.208
Stream size : 3.18 GiB (85%)
Writing library : x264 core 129 r2230 1cffe9f
Encoding settings : cabac=1 / ref=5 / deblock=1:0:0 / analyse=0x3:0x133 / me=umh / subme=7 / psy=1 / psy_rd=1.00:0.00 / mixed_ref=1 / me_range=16 / chroma_me=1 / trellis=1 / 8x8dct=1 / cqm=0 / deadzone=21,11 / fast_pskip=0 / chroma_qp_offset=-2 / threads=12 / lookahead_threads=2 / sliced_threads=0 / nr=0 / decimate=1 / interlaced=0 / bluray_compat=0 / constrained_intra=0 / bframes=3 / b_pyramid=2 / b_adapt=1 / b_bias=0 / direct=1 / weightb=1 / open_gop=0 / weightp=2 / keyint=250 / keyint_min=23 / scenecut=40 / intra_refresh=0 / rc_lookahead=40 / rc=2pass / mbtree=1 / bitrate=4437 / ratetol=1.0 / qcomp=0.60 / qpmin=0 / qpmax=69 / qpstep=4 / cplxblur=20.0 / qblur=0.5 / ip_ratio=1.40 / aq=1:1.00
Language : English
Default : Yes
Forced : No

Audio
ID : 2
Format : AC-3
Format/Info : Audio Coding 3
Mode extension : CM (complete main)
Format settings, Endianness : Big
Muxing mode : Header stripping
Codec ID : A_AC3
Duration : 1h 45mn
Bit rate mode : Constant
Bit rate : 640 Kbps
Channel(s) : 6 channels
Channel positions : Front: L C R, Side: L R, LFE
Sampling rate : 48.0 KHz
Bit depth : 16 bits
Compression mode : Lossy
Stream size : 481 MiB (13%)
Language : French
Default : No
Forced : No