Telecharger District 9 [BLURAY 720p] French

(TRUEFRENCH = Vraie voix française)

BLURAY 720p | MULTiLANGUES (Avec TRUEFRENCH)

District 9

District 9

District 9

Origine du film : Sud-Africain, canadien, américain, néo-zélandais
Réalisateur : Neill Blomkamp
Acteurs : Sharlto Copley, Jason Cope, Nathalie Boltt
Genre : Science fiction, Thriller, Action
Durée : 1h 50min
Date de sortie : 16 septembre 2009
Année de production : 2009
Distribué par : Metropolitan FilmExport
Note presse : District 9 4,0/5
Note spectateurs : District 9 3,8/5 (15 244)
Bande annonce :

2484bd833de817d86d460c66445e3dcb

18908098″>Cliquez-ici pour voir la bande annonce 2484bd833de817d86d460c66445e3dcb »> 18908098

2484bd833de817d86d460c66445e3dcb

District 9

Il y a vingt-huit ans, des extraterrestres entrèrent en contact avec la Terre…Ces visiteurs d'au-delà des étoiles étaient des réfugiés et furent installés dans le District 9, en Afrique du Sud, pendant que les nations du monde se querellaient pour savoir quoi en faire…Depuis, la gestion de la situation a été transférée au MNU (Multi-National United), une société privée qui n'a pas grand-chose à faire du sort de ces créatures, mais qui fera d'énormes bénéfices si elle arrive à faire fonctionner leur extraordinaire armement. Jusqu'à présent, toutes les tentatives ont échoué : pour que les armes marchent, il faut de l'ADN extraterrestre. La tension entre extraterrestres et humains atteint son maximum lorsque le MNU commence à évacuer les non-humains du District 9 vers un nouveau camp, en envoyant des agents de terrain s'occuper de leur transfert. L'un de ces agents, Wikus van der Merwe, contracte un virus extraterrestre qui se met à modifier son ADN. Wikus est à présent l'homme le plus recherché de la planète, celui qui vaut plus qu'une fortune : il est la clé qui permettra de percer le secret de la technologie alien.Repoussé, isolé, sans aide ni amis, il ne lui reste qu'un seul endroit où se cacher : le District 9…

Nom de la release : District.9.2009.Multi.720p.bluray.x264-nirvanaj 25230″ style= »display:inline; »>

Qualité : BLURAY 720p
Format : MKV
Sous-titre : Multilangue
Découpé avec : Winrar
Nombre de fichiers : 5 Fichiers
Taille des fichiers : 999 Mo 580 Mo
Taille totale : 4576 Mo

[Liens Interchangeables]

1fichier
Télécharger

Uptobox
Télécharger

Uploaded
Télécharger

Rapidgator
Télécharger

TurboBit
Télécharger

[ 1 Lien Premium – 4,5 Go ]

1fichier Premium
Télécharger

Uptobox Premium
Télécharger

Uploaded Premium
Télécharger

TurboBit Premium
Télécharger

NFO :

Afficher / Masquer le texte 96460373126322a3866fdccc87515960″ class= »text_spoiler » style= »display:none; »>General
——-

Complete name : District 9
Format : Matroska
Format version : Version 2
File size : 4.38 GiB
Duration : 1h 52mn
Overall bit rate mode : Variable
Overall bit rate : 5 583 Kbps
Encoded date : UTC 2012-03-02 16:41:21
Writing application : mkvmerge v5.3.0 ('I could have danced') built on Feb 9 2012 10:38:07
Writing library : libebml v1.2.3 libmatroska v1.3.0
Source video : MaX
Source audio/sous titres FR : TRSIEL

Video
—–

ID : 1
Format : AVC
Format/Info : Advanced Video Codec
Format profile : [email protected]
Format settings, CABAC : Yes
Format settings, ReFrames : 4 frames
Muxing mode : Header stripping
Codec ID : V_MPEG4/ISO/AVC
Duration : 1h 52mn
Bit rate mode : Variable
Bit rate : 4 303 Kbps
Maximum bit rate : 40.0 Mbps
Width : 1 280 pixels
Height : 720 pixels
Display aspect ratio : 1.850
Frame rate : 23.976 fps
Color space : YUV
Chroma subsampling : 4:2:0
Bit depth : 8 bits
Scan type : Progressive
Bits/(Pixel*Frame) : 0.203
Stream size : 3.29 GiB (75%)
Writing library : x264 core 116 r2074 2641b9e
Default : Yes
Forced : No

Audio #1
——–

ID : 2
Format : AC-3
Format/Info : Audio Coding 3
Mode extension : CM (complete main)
Muxing mode : Header stripping
Codec ID : A_AC3
Duration : 1h 52mn
Bit rate mode : Constant
Bit rate : 640 Kbps
Channel(s) : 6 channels
Channel positions : Front: L C R, Side: L R, LFE
Sampling rate : 48.0 KHz
Bit depth : 16 bits
Compression mode : Lossy
Stream size : 514 MiB (11%)
Language : English
Default : No

Audio #2
——–

ID : 4
Format : AC-3
Format/Info : Audio Coding 3
Mode extension : CM (complete main)
Muxing mode : Header stripping
Codec ID : A_AC3
Duration : 1h 52mn
Bit rate mode : Constant
Bit rate : 640 Kbps
Channel(s) : 6 channels
Channel positions : Front: L C R, Side: L R, LFE
Sampling rate : 48.0 KHz
Bit depth : 16 bits
Compression mode : Lossy
Delay relative to video : 8s 500ms
Stream size : 514 MiB (11%)
Language : French
Default : Yes

Text #1
——-

ID : 3
Format : UTF-8
Codec ID : S_TEXT/UTF8
Codec ID/Info : UTF-8 Plain Text
Language : English
Default : No

Text #2
——-

ID : 5
Format : VobSub
Muxing mode : zlib
Codec ID : S_VOBSUB
Codec ID/Info : The same subtitle format used on DVDs
Language : French
Default : No

Jeux Gratuit
15354131_1854970838071206_1069261547_o.png