Télécharger Divergente 2 : l’insurrection Blu-Ray 3D

(TRUEFRENCH = Vraie voix française)

Qualité BLURAY 3D | MULTi (VFF+VFQ+VO) | Top Bottom

Divergente 2 : l’insurrection

Divergente 2 : l’insurrection

Origine du film : Américain
Réalisateur : Robert Schwentke
Acteurs : Shailene Woodley, Theo James, Octavia Spencer
Genre : Science fiction, Action
Durée : 1h59min
Date de sortie : 18 mars 2015
Année de production : 2015
Titre Original : Insurgent
Distribué par : SND
Note presse : Divergente 2 : l’insurrection 3,1/5
Note spectateurs : Divergente 2 : l’insurrection 3,8/5 (5 292)
Bande annonce :

708ecd70b837cea3ce04028a1be050dd

19550445″>Cliquez-ici pour voir la bande annonce 708ecd70b837cea3ce04028a1be050dd »> 19550445

708ecd70b837cea3ce04028a1be050dd

Divergente 2 : l’insurrection

Dans un monde post-apocalyptique où la société a été réorganisée autour de 5 factions (Audacieux, Érudits, Altruistes, Sincères et Fraternels), Tris a mis au jour un complot mené par la faction dominante, les Érudits, dirigés par Jeanine. Abandonnant une ville à feu et à sang, à la recherche d’alliés, Tris et Quatre sont désormais traqués par les autorités. Jeanine décrète la loi martiale pour anéantir les Divergents, tandis que la guerre entre les factions prend de l’ampleur. Pourquoi les Divergents sont-ils une menace pour la société ? La découverte d’un objet mystérieux, hérité du passé, pourrait bien bouleverser l’équilibre des forces…
92972″ style= »display:inline; »>

Divergente 2 : l’insurrection

Format : MKV
Découpé avec : Winrar

Divergente 2 : l’insurrection

Insurgent 2015 3D Top-Bottom MULTi-VF2 1080p BluRay DTS-HDMA AVC~Tonyk

(8756 Mo)

[Liens Interchangeables entre hébergeurs: 15 x 1000 Mo + 1x 119 Mo]

Uptobox
Télécharger

Uplea
Télécharger

1fichier
Télécharger

Uploaded
Télécharger

Rapidgator
Télécharger

TurboBit
Télécharger

[Liens PREMIUM]

Uptobox
Télécharger

Uplea
Télécharger

1fichier
Télécharger

Uploaded
Télécharger

TurboBit
Télécharger

NFO :

Afficher / Masquer le texte e5a1eabef04481e96733fa50d9c90061″ class= »text_spoiler » style= »display:none; »>Insurgent 2015 3D Top-Bottom MULTi-VF2 1080p BluRay DTS-HDMA AVC~Tonyk~.mkv

Format : Matroska
Format version : Version 4 / Version 2
File size : 14.8 GiB
Duration : 1h 59mn
Overall bit rate mode : Variable
Overall bit rate : 17.8 Mbps
Movie name : Insurgent 2015 3D
Encoded date : UTC 2015-08-08 10:37:21
Writing application : mkvmerge v8.2.0 (‘World of Adventure’) 64bit
Writing library : libebml v1.3.1 + libmatroska v1.4.2

Video
ID : 1
Format : AVC
Format/Info : Advanced Video Codec
Format profile : [email protected]
Format settings, CABAC : Yes
Format settings, ReFrames : 4 frames
Codec ID : V_MPEG4/ISO/AVC
Duration : 1h 59mn
Nominal bit rate : 12.6 Mbps
Width : 1 920 pixels
Height : 1 080 pixels
Display aspect ratio : 16:9
Frame rate mode : Constant
Frame rate : 23.976 fps
Color space : YUV
Chroma subsampling : 4:2:0
Bit depth : 8 bits
Scan type : Progressive
Bits/(Pixel*Frame) : 0.253
Writing library : x264 core 146 r2538 121396c

Audio #1
ID : 2
Format : DTS
Format/Info : Digital Theater Systems
Format profile : MA / Core
Mode : 16
Format settings, Endianness : Big
Codec ID : A_DTS
Duration : 1h 59mn
Bit rate mode : Variable
Bit rate : Unknown / 1 509 Kbps
Channel(s) : 8 channels / 6 channels
Channel positions : Front: L C R, Side: L R, Back: L R, LFE / Front: L C R, Side: L R, LFE
Sampling rate : 48.0 KHz
Bit depth : 24 bits
Compression mode : Lossless / Lossy
Title : DTS-HDMA-7.1-VO
Language : English
Default : Yes
Forced : No

Audio #2
ID : 3
Format : AC-3
Format/Info : Audio Coding 3
Mode extension : CM (complete main)
Format settings, Endianness : Big
Codec ID : A_AC3
Duration : 1h 59mn
Bit rate mode : Constant
Bit rate : 448 Kbps
Channel(s) : 6 channels
Channel positions : Front: L C R, Side: L R, LFE
Sampling rate : 48.0 KHz
Compression mode : Lossy
Delay relative to video : 4ms
Stream size : 381 MiB (3%)
Title : AC3-5.1-VO
Language : English
Default : No
Forced : No

Audio #3
ID : 4
Format : AC-3
Format/Info : Audio Coding 3
Mode extension : CM (complete main)
Format settings, Endianness : Big
Codec ID : A_AC3
Duration : 1h 59mn
Bit rate mode : Constant
Bit rate : 448 Kbps
Channel(s) : 6 channels
Channel positions : Front: L C R, Side: L R, LFE
Sampling rate : 48.0 KHz
Compression mode : Lossy
Delay relative to video : 4ms
Stream size : 381 MiB (3%)
Title : AC3-5.1-VFQ
Language : French
Default : No
Forced : No

Audio #4
ID : 5
Format : AC-3
Format/Info : Audio Coding 3
Mode extension : CM (complete main)
Format settings, Endianness : Big
Codec ID : A_AC3
Duration : 1h 59mn
Bit rate mode : Constant
Bit rate : 448 Kbps
Channel(s) : 6 channels
Channel positions : Front: L C R, Side: L R, LFE
Sampling rate : 48.0 KHz
Compression mode : Lossy
Stream size : 381 MiB (3%)
Title : AC3-5.1-VFF
Language : French
Default : No
Forced : No

Text #1
ID : 6
Format : PGS
Muxing mode : zlib
Codec ID : S_HDMV/PGS
Codec ID/Info : Picture based subtitle format used on BDs/HD-DVDs
Title : full
Language : English
Default : No
Forced : No

Text #2
ID : 7
Format : PGS
Muxing mode : zlib
Codec ID : S_HDMV/PGS
Codec ID/Info : Picture based subtitle format used on BDs/HD-DVDs
Title : full SDH
Language : English
Default : No
Forced : No

Menu
00:00:00.000 : en:00:00:00.000
00:06:11.288 : en:00:06:11.288
00:13:35.398 : en:00:13:35.398
00:19:35.007 : en:00:19:35.007
00:26:39.431 : en:00:26:39.431
00:34:23.061 : en:00:34:23.061
00:41:13.846 : en:00:41:13.846
00:46:34.708 : en:00:46:34.708
00:53:10.103 : en:00:53:10.103
00:59:30.358 : en:00:59:30.358
01:05:59.664 : en:01:05:59.664
01:13:34.910 : en:01:13:34.910
01:22:57.931 : en:01:22:57.931
01:32:04.936 : en:01:32:04.936
01:39:09.360 : en:01:39:09.360
01:46:38.642 : en:01:46:38.642

1557
-
Votes : 0
Jeux Gratuit
15354131_1854970838071206_1069261547_o.png