Telecharger Django, prépare ton cercueil [DVDRiP] French

Qualité BLURAY 1080p | MULTiLANGUES

Django, prépare ton cercueil

Django, prépare ton cercueil

Origine du film : Italien
Réalisateur : Ferdinando Baldi
Acteurs : Terence Hill, Horst Frank, George Eastman
Genre : Western
Durée : 1h28min
Année de production : 1968
Titre Original : Preparati la bara!
Note spectateurs : Django, prépare ton cercueil

; »>3,2/5 (14)

Django, prépare ton cercueil

Django est un convoyeur de fonds au service des banques, mais un jour une opération tourne mal… Sa femme est tuée et il est laissé pour mort. Tout cela est la faute du sénateur Barry qui paye des renégats pour braquer les convois. Django, fou de colère et ivre de vengeance, décide de faire payer Barry en devenant bourreau. Ainsi, il est en mesure d’épargner les condamnés à mort afin qu’ils se débarrasent de lui.
104938″ style= »display:inline; »>

Django, prépare ton cercueil

Format : MKV
Découpé avec : Winrar

Django, prépare ton cercueil

Django prépare ton cercueil 1968 MULTi 1080p BlueRay x264 AC3 -NoTag

(6123 Mo)

[Liens Interchangeables entre hébergeurs: 6x 1000 Mo + 1x 123 Mo]

Uptobox
Télécharger

Uplea
Télécharger

1fichier
Télécharger

Uploaded
Télécharger

Rapidgator
Télécharger

TurboBit
Télécharger

[ Liens Premium ]

Uptobox
Télécharger

Uplea
Télécharger

1fichier
Télécharger

Uploaded
Télécharger

TurboBit
Télécharger

NFO :

Afficher / Masquer le texte 66e01efdb2a632fe509e5e6082b5a10d » class= »text_spoiler » style= »display:none; »>Django prépare ton cercueil 1968 MULTi 1080p BlueRay x264 AC3 -NoTag
Format : Matroska
Format version : Version 2
File size : 5.98 GiB
Duration : 1h 31mn
Overall bit rate : 9 311 Kbps
Encoded date : UTC 2013-09-04 08:57:02
Writing application : mkvmerge v5.8.0 (‘No Sleep / Pillow’) built on Sep 2 2012 15:37:04
Writing library : libebml v1.2.3 + libmatroska v1.3.0

Video
ID : 1
Format : AVC
Format/Info : Advanced Video Codec
Format profile : [email protected]
Format settings, CABAC : Yes
Format settings, ReFrames : 4 frames
Muxing mode : Header stripping
Codec ID : V_MPEG4/ISO/AVC
Duration : 1h 31mn
Bit rate : 8 926 Kbps
Width : 1 792 pixels
Height : 1 080 pixels
Display aspect ratio : 1.659
Frame rate mode : Constant
Frame rate : 23.976 fps
Color space : YUV
Chroma subsampling : 4:2:0
Bit depth : 8 bits
Scan type : Progressive
Bits/(Pixel*Frame) : 0.192
Stream size : 5.61 GiB (94%)
Writing library : x264 core 133 r2334 a3ac64b
Encoding settings : cabac=1 / ref=4 / deblock=1:0:0 / analyse=0x3:0x133 / me=umh / subme=7 / psy=1 / psy_rd=1.00:0.00 / mixed_ref=1 / me_range=16 / chroma_me=1 / trellis=1 / 8x8dct=1 / cqm=0 / deadzone=21,11 / fast_pskip=0 / chroma_qp_offset=-2 / threads=12 / lookahead_threads=2 / sliced_threads=0 / nr=0 / decimate=1 / interlaced=0 / bluray_compat=0 / constrained_intra=0 / bframes=3 / b_pyramid=2 / b_adapt=2 / b_bias=0 / direct=3 / weightb=1 / open_gop=0 / weightp=2 / keyint=250 / keyint_min=23 / scenecut=40 / intra_refresh=0 / rc_lookahead=50 / rc=2pass / mbtree=1 / bitrate=8926 / ratetol=1.0 / qcomp=0.60 / qpmin=0 / qpmax=69 / qpstep=4 / cplxblur=20.0 / qblur=0.5 / ip_ratio=1.40 / aq=1:1.00
Language : English
Default : Yes
Forced : No

Audio #1
ID : 2
Format : AC-3
Format/Info : Audio Coding 3
Mode extension : CM (complete main)
Format settings, Endianness : Big
Muxing mode : Header stripping
Codec ID : A_AC3
Duration : 1h 31mn
Bit rate mode : Constant
Bit rate : 192 Kbps
Channel count : 2 channels
Channel positions : Front: L R
Sampling rate : 48.0 KHz
Bit depth : 16 bits
Compression mode : Lossy
Stream size : 126 MiB (2%)
Language : French
Default : Yes
Forced : No

Audio #2
ID : 3
Format : AC-3
Format/Info : Audio Coding 3
Mode extension : CM (complete main)
Format settings, Endianness : Big
Muxing mode : Header stripping
Codec ID : A_AC3
Duration : 1h 31mn
Bit rate mode : Constant
Bit rate : 192 Kbps
Channel count : 2 channels
Channel positions : Front: L R
Sampling rate : 48.0 KHz
Bit depth : 16 bits
Compression mode : Lossy
Stream size : 126 MiB (2%)
Language : Italian
Default : No
Forced : No

Text
ID : 4
Format : UTF-8
Codec ID : S_TEXT/UTF8
Codec ID/Info : UTF-8 Plain Text
Language : French
Default : No
Forced : No