Télécharger Domino Blu-Ray 1080p/720p FRENCH

(TRUEFRENCH = Vraie voix française)

Qualité BLURAY 720p | MULTiLANGUES (Avec TRUEFRENCH) | son DTS

Domino

Domino

Domino

Origine du film : Britannique, Français, Américain
Réalisateur : Tony Scott
Acteurs : Keira Knightley, Mickey Rourke, Edgar Ramírez
Genre : Policier, Action, Drame
Durée : 2h8min
Date de sortie : 23 novembre 2005
Année de production : 2005
Distribué par : Metropolitan FilmExport
Note presse : Domino 3,1/5
Note spectateurs : Domino 2,8/5 (5 071)
Bande annonce :

4d8df21d1c0db2bc24c8ccf5de79f81c

19446074″>Cliquez-ici pour voir la bande annonce 4d8df21d1c0db2bc24c8ccf5de79f81c »> 19446074

4d8df21d1c0db2bc24c8ccf5de79f81c

Domino

Jeune mannequin célèbre issu d’une famille en vue, Domino Harvey décide de tout quitter pour devenir chasseuse de primes. Fuyant les défilés et les mondanités, elle se jette dans l’univers de la traque et du danger…
104163″ style= »display:inline; »>

Domino

Format : MKV
Découpé avec : Winrar

Domino

Domino.2005.MULTi.720p.BluRay.DTS.x264-KLI

(7317 Mo)

[Liens Interchangeables entre hébergeurs: 7x 1000 Mo + 1x 317 Mo]

Uptobox
Télécharger

Uplea
Télécharger

1fichier
Télécharger

Uploaded
Télécharger

Rapidgator
Télécharger

TurboBit
Télécharger

[ Liens Premium ]

Uptobox
Télécharger

Uplea
Télécharger

1fichier
Télécharger

Uploaded
Télécharger

TurboBit
Télécharger

NFO :

Afficher / Masquer le texte d1435d107e8f7418096cdf987ac42f8d » class= »text_spoiler » style= »display:none; »>Domino.2005.MULTi.720p.BluRay.DTS.x264-KLI.zone-telechargement.com.mkv
Format : Matroska
Format version : Version 4 / Version 2
File size : 7.15 GiB
Duration : 2h 7mn
Overall bit rate : 8 020 Kbps
Movie name : Domino 2005 MULTi 720p VFF Encode By KLI
Encoded date : UTC 2015-10-29 14:01:40
Writing application : mkvmerge v7.8.0 (‘River Man’) 64bit built on Mar 28 2015 07:20:28
Writing library : libebml v1.3.1 + libmatroska v1.4.2

Video
ID : 1
Format : AVC
Format/Info : Advanced Video Codec
Format profile : [email protected]
Format settings, CABAC : Yes
Format settings, ReFrames : 6 frames
Codec ID : V_MPEG4/ISO/AVC
Duration : 2h 7mn
Bit rate : 4 997 Kbps
Width : 1 280 pixels
Height : 544 pixels
Display aspect ratio : 2.35:1
Frame rate mode : Constant
Frame rate : 23.976 fps
Color space : YUV
Chroma subsampling : 4:2:0
Bit depth : 8 bits
Scan type : Progressive
Bits/(Pixel*Frame) : 0.299
Stream size : 4.31 GiB (60%)
Title : Domino 2005 MULTi 720p VFF Encode By KLI
Writing library : x264 core 146
Encoding settings : cabac=1 / ref=6 / deblock=1:-1:-1 / analyse=0x3:0x113 / me=umh / subme=9 / psy=1 / psy_rd=1,00:0,15 / mixed_ref=1 / me_range=32 / chroma_me=1 / trellis=1 / 8x8dct=1 / cqm=0 / deadzone=21,11 / fast_pskip=0 / chroma_qp_offset=-3 / threads=16 / lookahead_threads=3 / sliced_threads=0 / nr=0 / decimate=1 / interlaced=0 / bluray_compat=0 / constrained_intra=0 / bframes=8 / b_pyramid=2 / b_adapt=2 / b_bias=0 / direct=1 / weightb=1 / open_gop=0 / weightp=2 / keyint=240 / keyint_min=24 / scenecut=40 / intra_refresh=0 / rc_lookahead=60 / rc=2pass / mbtree=1 / bitrate=4997 / ratetol=1,0 / qcomp=0,60 / qpmin=0 / qpmax=69 / qpstep=4 / cplxblur=20,0 / qblur=0,5 / vbv_maxrate=30000 / vbv_bufsize=30000 / nal_hrd=none / filler=0 / ip_ratio=1,40 / aq=1:1,00
Language : English
Default : Yes
Forced : No
Color range : Limited
Color primaries : BT.709
Transfer characteristics : BT.709
Matrix coefficients : BT.709

Audio #1
ID : 2
Format : DTS
Format/Info : Digital Theater Systems
Mode : 16
Format settings, Endianness : Big
Codec ID : A_DTS
Duration : 2h 7mn
Bit rate mode : Constant
Bit rate : 1 509 Kbps
Channel(s) : 6 channels
Channel positions : Front: L C R, Side: L R, LFE
Sampling rate : 48.0 KHz
Bit depth : 16 bits
Compression mode : Lossy
Stream size : 1.34 GiB (19%)
Title : DTS 5.1 VFF
Language : French
Default : Yes
Forced : No

Audio #2
ID : 3
Format : DTS
Format/Info : Digital Theater Systems
Mode : 16
Format settings, Endianness : Big
Codec ID : A_DTS
Duration : 2h 7mn
Bit rate mode : Constant
Bit rate : 1 509 Kbps
Channel(s) : 6 channels
Channel positions : Front: L C R, Side: L R, LFE
Sampling rate : 48.0 KHz
Bit depth : 16 bits
Compression mode : Lossy
Stream size : 1.34 GiB (19%)
Title : DTS 5.1
Language : English
Default : No
Forced : No

Text #1
ID : 4
Format : UTF-8
Codec ID : S_TEXT/UTF8
Codec ID/Info : UTF-8 Plain Text
Title : SRT Forced
Language : French
Default : Yes
Forced : No

Text #2
ID : 5
Format : UTF-8
Codec ID : S_TEXT/UTF8
Codec ID/Info : UTF-8 Plain Text
Title : SRT Full
Language : French
Default : No
Forced : No

Text #3
ID : 6
Format : PGS
Muxing mode : zlib
Codec ID : S_HDMV/PGS
Codec ID/Info : Picture based subtitle format used on BDs/HD-DVDs
Title : PGS Forced
Language : French
Default : No
Forced : No

Text #4
ID : 7
Format : PGS
Muxing mode : zlib
Codec ID : S_HDMV/PGS
Codec ID/Info : Picture based subtitle format used on BDs/HD-DVDs
Title : PGS Full
Language : French
Default : No
Forced : No