Télécharger Domino Blu-Ray 1080p/720p FRENCH

Qualité BLURAY 1080p | MULTiLANGUES

Domino

Domino

Domino

Origine du film : Britannique, Français, Américain
Réalisateur : Tony Scott
Acteurs : Keira Knightley, Mickey Rourke, Edgar Ramírez
Genre : Policier, Action, Drame
Durée : 2h8min
Date de sortie : 23 novembre 2005
Année de production : 2005
Distribué par : Metropolitan FilmExport
Note presse : Domino 3,1/5
Note spectateurs : Domino 2,8/5 (5 052)
Bande annonce :

068330927a029b21d09a5ba6caf1f540

19446074″>Cliquez-ici pour voir la bande annonce 068330927a029b21d09a5ba6caf1f540″> 19446074

068330927a029b21d09a5ba6caf1f540

Domino

Jeune mannequin célèbre issu d’une famille en vue, Domino Harvey décide de tout quitter pour devenir chasseuse de primes. Fuyant les défilés et les mondanités, elle se jette dans l’univers de la traque et du danger…
96019″ style= »display:inline; »>

Domino

Format : MKV
Découpé avec : Winrar

Domino

Domino.2005.MULTI.1080p.BluRay.x264.AC3-LCDS

(7730 Mo)

[Liens Interchangeables entre hébergeurs: 7x 1000 Mo + 1x 730 Mo]

Uptobox
Télécharger

Uploaded
Télécharger

TurboBit
Télécharger

Rapidgator
Télécharger

Uplea
Télécharger

1fichier
Télécharger

[Lien Premium]

Uptobox
Télécharger

Uploaded
Télécharger

TurboBit
Télécharger

Uplea
Télécharger

1fichier
Télécharger

NFO :

Afficher / Masquer le texte 44eaee5a16c405f2f03cfb27f2bd8ce8″ class= »text_spoiler » style= »display:none; »>General
Complete name : Domino.2005.MULTI.1080p.BluRay.x264.AC3-LCDS.mkv
Format : Matroska
Format version : Version 4 / Version 2
File size : 7.73 GiB
Duration : 2h 7mn
Overall bit rate : 8 673 Kbps
Encoded date : UTC 2014-09-01 04:16:37
Writing application : mkvmerge v6.9.1 (‘Blue Panther’) 64bit built on Apr 18 2014 18:23:38
Writing library : libebml v1.3.0 + libmatroska v1.4.1

Video
ID : 1
Format : AVC
Format/Info : Advanced Video Codec
Format profile : [email protected]
Format settings, CABAC : Yes
Format settings, ReFrames : 5 frames
Codec ID : V_MPEG4/ISO/AVC
Duration : 2h 7mn
Bit rate : 8 035 Kbps
Width : 1 920 pixels
Height : 816 pixels
Display aspect ratio : 2.35:1
Frame rate mode : Constant
Frame rate : 23.976 fps
Color space : YUV
Chroma subsampling : 4:2:0
Bit depth : 8 bits
Scan type : Progressive
Bits/(Pixel*Frame) : 0.214
Stream size : 7.00 GiB (91%)
Title : Video
Writing library : x264 core 120 r2145 748fe16
Encoding settings : cabac=1 / ref=5 / deblock=1:0:0 / analyse=0x3:0x113 / me=umh / subme=7 / psy=1 / psy_rd=1.00:0.00 / mixed_ref=1 / me_range=16 / chroma_me=1 / trellis=1 / 8x8dct=1 / cqm=0 / deadzone=21,11 / fast_pskip=1 / chroma_qp_offset=-2 / threads=10 / sliced_threads=0 / nr=0 / decimate=1 / interlaced=0 / bluray_compat=0 / constrained_intra=0 / bframes=3 / b_pyramid=2 / b_adapt=1 / b_bias=0 / direct=1 / weightb=1 / open_gop=0 / weightp=2 / keyint=240 / keyint_min=23 / scenecut=40 / intra_refresh=0 / rc_lookahead=40 / rc=2pass / mbtree=1 / bitrate=8035 / ratetol=1.0 / qcomp=0.60 / qpmin=0 / qpmax=69 / qpstep=4 / cplxblur=20.0 / qblur=0.5 / ip_ratio=1.40 / aq=1:1.00
Default : Yes
Forced : No

Audio #1
ID : 2
Format : AC-3
Format/Info : Audio Coding 3
Mode extension : CM (complete main)
Format settings, Endianness : Big
Codec ID : A_AC3
Duration : 2h 7mn
Bit rate mode : Constant
Bit rate : 448 Kbps
Channel(s) : 6 channels
Channel positions : Front: L C R, Side: L R, LFE
Sampling rate : 48.0 KHz
Bit depth : 16 bits
Compression mode : Lossy
Stream size : 409 MiB (5%)
Title : Anglais 5.1
Language : English
Default : No
Forced : No

Audio #2
ID : 3
Format : AC-3
Format/Info : Audio Coding 3
Mode extension : CM (complete main)
Format settings, Endianness : Big
Codec ID : A_AC3
Duration : 2h 7mn
Bit rate mode : Constant
Bit rate : 192 Kbps
Channel(s) : 2 channels
Channel positions : Front: L R
Sampling rate : 48.0 KHz
Bit depth : 16 bits
Compression mode : Lossy
Stream size : 175 MiB (2%)
Title : Francais 2.0
Language : French
Default : Yes
Forced : No

Text #1
ID : 4
Format : UTF-8
Codec ID : S_TEXT/UTF8
Codec ID/Info : UTF-8 Plain Text
Title : English
Language : English
Default : No
Forced : No

Text #2
ID : 5
Format : UTF-8
Codec ID : S_TEXT/UTF8
Codec ID/Info : UTF-8 Plain Text
Title : French
Language : French
Default : No
Forced : No

Text #3
ID : 6
Format : UTF-8
Codec ID : S_TEXT/UTF8
Codec ID/Info : UTF-8 Plain Text
Title : Francais Forced
Language : French
Default : Yes
Forced : No

Jeux Gratuit
15354131_1854970838071206_1069261547_o.png