Telecharger Dope [BLURAY 720p] French

Qualité BLURAY 720p | FRENCH

Dope

Dope

Origine du film : Américain
Réalisateur : Rick Famuyiwa
Acteurs : Shameik Moore, Kiersey Clemons, Tony Revolori
Genre : Comédie
Durée : 1h43min
Date de sortie : 4 novembre 2015
Année de production : 2015
Distribué par : Happiness Distribution
Bande annonce :

0b6ed792cb61b1d457bc7dd564266671

19558127″>Cliquez-ici pour voir la bande annonce 0b6ed792cb61b1d457bc7dd564266671″> 19558127

0b6ed792cb61b1d457bc7dd564266671

Dope

Malcolm, jeune geek fan de hip-hop des années 90 vit à Inglewood, un quartier chaud de Los Angeles. Avec ses deux amis Diggy et Jibs, ils jonglent entre musique, lycée et entretiens pour entrer à l’université. Une invitation à une soirée underground va entrainer Malcolm dans une aventure qui pourrait bien le faire passer du statut de « geek » à celui de mec cool, un « dope ».
101718″ style= »display:inline; »>

Dope

Format : MKV
Découpé avec : Winrar

Dope

Dope.2015.FRENCH.720p.BluRay.x264.AC3-ShowFr

(3690 Mo)

[Liens Interchangeables entre hébergeurs: 3x 1000 Mo + 1x 690 Mo]

Uptobox
Télécharger

Uplea
Télécharger

1fichier
Télécharger

Uploaded
Télécharger

Rapidgator
Télécharger

TurboBit
Télécharger

[Liens PREMIUM]

Uptobox
Télécharger

Uplea
Télécharger

1fichier
Télécharger

Uploaded
Télécharger

Rapidgator
Télécharger

TurboBit
Télécharger

NFO :

Afficher / Masquer le texte 9849f409e7534a1e30ae232619acd68c » class= »text_spoiler » style= »display:none; »>General
Format : Matroska
Format version : Version 4 / Version 2
File size : 3.60 GiB
Duration : 1h 43mn
Overall bit rate : 4 995 Kbps
Encoded date : UTC 2015-10-20 16:11:52
Writing application : mkvmerge v8.3.0 (‘Over the Horizon’) 64bit
Writing library : libebml v1.3.1 + libmatroska v1.4.2
DURATION : 01:34:20.410000000
NUMBER_OF_FRAMES : 17
NUMBER_OF_BYTES : 831
_STATISTICS_WRITING_APP : mkvmerge v8.3.0 (‘Over the Horizon’) 64bit
_STATISTICS_WRITING_DATE_UTC : 2015-10-20 16:11:52
_STATISTICS_TAGS : BPS DURATION NUMBER_OF_FRAMES NUMBER_OF_BYTES

Video
ID : 2
Format : AVC
Format/Info : Advanced Video Codec
Format profile : [email protected]
Format settings, CABAC : Yes
Format settings, ReFrames : 5 frames
Codec ID : V_MPEG4/ISO/AVC
Duration : 1h 43mn
Bit rate : 4 547 Kbps
Width : 1 280 pixels
Height : 536 pixels
Display aspect ratio : 2.40:1
Frame rate mode : Constant
Frame rate : 23.976 fps
Color space : YUV
Chroma subsampling : 4:2:0
Bit depth : 8 bits
Scan type : Progressive
Bits/(Pixel*Frame) : 0.276
Stream size : 3.21 GiB (89%)
Writing library : x264 core 148 r2597 e86f3a1
Encoding settings : cabac=1 / ref=5 / deblock=1:0:0 / analyse=0x3:0x133 / me=umh / subme=7 / psy=1 / psy_rd=1.00:0.00 / mixed_ref=1 / me_range=16 / chroma_me=1 / trellis=1 / 8x8dct=1 / cqm=0 / deadzone=21,11 / fast_pskip=0 / chroma_qp_offset=-2 / threads=17 / lookahead_threads=2 / sliced_threads=0 / nr=0 / decimate=1 / interlaced=0 / bluray_compat=0 / constrained_intra=0 / bframes=3 / b_pyramid=2 / b_adapt=1 / b_bias=0 / direct=1 / weightb=1 / open_gop=0 / weightp=2 / keyint=250 / keyint_min=23 / scenecut=40 / intra_refresh=0 / rc_lookahead=40 / rc=2pass / mbtree=1 / bitrate=4547 / ratetol=1.0 / qcomp=0.60 / qpmin=0 / qpmax=69 / qpstep=4 / cplxblur=20.0 / qblur=0.5 / ip_ratio=1.40 / aq=1:1.00
Language : English
Default : Yes
Forced : No

Audio
ID : 1
Format : AC-3
Format/Info : Audio Coding 3
Mode extension : CM (complete main)
Format settings, Endianness : Big
Codec ID : A_AC3
Duration : 1h 43mn
Bit rate mode : Constant
Bit rate : 448 Kbps
Channel(s) : 2 channels
Channel positions : Front: L R
Sampling rate : 48.0 KHz
Bit depth : 16 bits
Compression mode : Lossy
Stream size : 331 MiB (9%)
Default : Yes
Forced : No
DURATION : 01:43:18.369000000
NUMBER_OF_FRAMES : 148612
NUMBER_OF_BYTES : 3521645263
_STATISTICS_WRITING_APP : mkvmerge v8.3.0 (‘Over the Horizon’) 64bit
_STATISTICS_WRITING_DATE_UTC : 2015-10-20 16:11:52
_STATISTICS_TAGS : BPS DURATION NUMBER_OF_FRAMES NUMBER_OF_BYTES

Text
ID : 3
Format : ASS
Codec ID : S_TEXT/ASS
Codec ID/Info : Advanced Sub Station Alpha
Compression mode : Lossless
Default : Yes
Forced : No

Menu
00:00:00.000 : en:00:00:00.000
00:06:04.072 : en:00:06:04.072
00:09:34.532 : en:00:09:34.532
00:15:05.363 : en:00:15:05.363
00:19:57.405 : en:00:19:57.405
00:24:38.977 : en:00:24:38.977
00:27:59.678 : en:00:27:59.678
00:32:43.503 : en:00:32:43.503
00:37:22.782 : en:00:37:22.782
00:41:45.253 : en:00:41:45.253
00:46:18.025 : en:00:46:18.025
00:52:19.511 : en:00:52:19.511
00:59:15.427 : en:00:59:15.427
01:04:28.823 : en:01:04:28.823
01:09:18.654 : en:01:09:18.654
01:14:49.110 : en:01:14:49.110
01:20:27.031 : en:01:20:27.031
01:25:07.144 : en:01:25:07.144
01:31:30.819 : en:01:31:30.819
01:38:09.133 : en:01:38:09.133

Jeux Gratuit
15354131_1854970838071206_1069261547_o.png