Telecharger Down by Law [DVDRiP] French

Qualité BLURAY 1080p | MULTiLANGUES

Down by Law

Down by Law

Origine du film : Allemand, Américain
Réalisateur : Jim Jarmusch
Acteurs : Tom Waits, John Lurie, Roberto Benigni
Genre : Comédie dramatique
Durée : 1h46min
Date de sortie : 12 novembre 1986
Année de production : 1986
Note spectateurs : Down by Law

; »>4/5 (960)
Bande annonce :

24338b5fe50e54f66f93380dc879e868

19432913″>Cliquez-ici pour voir la bande annonce 24338b5fe50e54f66f93380dc879e868″> 19432913

24338b5fe50e54f66f93380dc879e868

Down by Law

Dans le bayou, en Guyane, un monde de malchance et d’ennuis pour Jack et Zack. Ces deux paumés se retrouvent en prison et rencontrent Roberto, rempli de l’entrain qui leur manque. Il les entraîne à s’évader.
94318″ style= »display:inline; »>

Down by Law

Format : MKV
Découpé avec : Winrar

Down by Law

Down.by.Law.1986.MULTi.1080p.BluRay.x264-LeCortex

(6859 Mo)

[Liens Interchangeables entre hébergeurs: 6x 998 Mo + 1x 871 Mo]

Uptobox
Télécharger

Uplea
Télécharger

1fichier
Télécharger

Uploaded
Télécharger

Rapidgator
Télécharger

TurboBit
Télécharger

[ Télécharger le film en 1 lien Premium – 7 Go]

Uptobox.com Premium
Télécharger

Uplea Premium
Télécharger

1fichier.com
Télécharger

Uploaded Premium (2 liens)
Télécharger

TurboBit.net Premium
Télécharger

NFO :

Afficher / Masquer le texte 3c8eabf6591fad55664f3c9fc3239fbd » class= »text_spoiler » style= »display:none; »>Format : Matroska
Format version : Version 2
File size : 6.70 GiB
Duration : 1h 46mn
Overall bit rate : 8 972 Kbps
Encoded date : UTC 2012-07-06 16:48:35
Writing application : mkvmerge v2.7.0 (‘Do It Again’) built on Jul 2 2010 15:54:17
Writing library : libebml v0.7.7 + libmatroska v0.8.1

Video
ID : 1
Format : AVC
Format/Info : Advanced Video Codec
Format profile : [email protected]
Format settings, CABAC : Yes
Format settings, ReFrames : 4 frames
Codec ID : V_MPEG4/ISO/AVC
Duration : 1h 46mn
Bit rate : 8 144 Kbps
Width : 1 920 pixels
Height : 1 080 pixels
Display aspect ratio : 16:9
Frame rate mode : Constant
Frame rate : 23.976 fps
Color space : YUV
Chroma subsampling : 4:2:0
Bit depth : 8 bits
Scan type : Progressive
Bits/(Pixel*Frame) : 0.164
Stream size : 5.94 GiB (89%)
Writing library : x264 core 125 r2200 999b753
Encoding settings : cabac=1 / ref=4 / deblock=1:0:0 / analyse=0x3:0x113 / me=umh / subme=8 / psy=1 / psy_rd=1.00:0.00 / mixed_ref=1 / me_range=16 / chroma_me=1 / trellis=1 / 8x8dct=1 / cqm=0 / deadzone=21,11 / fast_pskip=1 / chroma_qp_offset=-2 / threads=12 / lookahead_threads=2 / sliced_threads=0 / nr=0 / decimate=1 / interlaced=0 / bluray_compat=0 / constrained_intra=0 / bframes=3 / b_pyramid=2 / b_adapt=2 / b_bias=0 / direct=3 / weightb=1 / open_gop=0 / weightp=2 / keyint=240 / keyint_min=24 / scenecut=40 / intra_refresh=0 / rc_lookahead=50 / rc=2pass / mbtree=1 / bitrate=8144 / ratetol=1.0 / qcomp=0.60 / qpmin=0 / qpmax=69 / qpstep=4 / cplxblur=20.0 / qblur=0.5 / ip_ratio=1.40 / aq=1:1.00
Language : English
Default : Yes
Forced : No

Audio #1
ID : 2
Format : AC-3
Format/Info : Audio Coding 3
Mode extension : CM (complete main)
Format settings, Endianness : Big
Codec ID : A_AC3
Duration : 1h 46mn
Bit rate mode : Constant
Bit rate : 192 Kbps
Channel(s) : 1 channel
Channel positions : Front: C
Sampling rate : 48.0 KHz
Compression mode : Lossy
Stream size : 147 MiB (2%)
Default : No
Forced : No

Audio #2
ID : 3
Format : AC-3
Format/Info : Audio Coding 3
Mode extension : CM (complete main)
Format settings, Endianness : Big
Codec ID : A_AC3
Duration : 1h 46mn
Bit rate mode : Constant
Bit rate : 640 Kbps
Channel(s) : 6 channels
Channel(s)_Original : 1 channel
Channel positions : Front: C
Sampling rate : 48.0 KHz
Compression mode : Lossy
Stream size : 489 MiB (7%)
Language : English
Default : Yes
Forced : No

Text #1
ID : 4
Format : UTF-8
Codec ID : S_TEXT/UTF8
Codec ID/Info : UTF-8 Plain Text
Default : Yes
Forced : No

Text #2
ID : 5
Format : UTF-8
Codec ID : S_TEXT/UTF8
Codec ID/Info : UTF-8 Plain Text
Language : English
Default : No
Forced : No

Menu
00:00:00.000 : en:00:00:00.000
00:04:30.187 : en:00:04:30.187
00:05:54.854 : en:00:05:54.854
00:09:39.829 : en:00:09:39.829
00:12:01.971 : en:00:12:01.971
00:15:17.125 : en:00:15:17.125
00:18:45.249 : en:00:18:45.249
00:20:02.576 : en:00:20:02.576
00:22:34.979 : en:00:22:34.979
00:24:52.366 : en:00:24:52.366
00:28:36.298 : en:00:28:36.298
00:32:45.922 : en:00:32:45.922
00:41:05.213 : en:00:41:05.213
00:44:34.922 : en:00:44:34.922
00:45:38.778 : en:00:45:38.778
00:49:17.037 : en:00:49:17.037
00:51:28.711 : en:00:51:28.711
00:52:23.640 : en:00:52:23.640
00:54:04.700 : en:00:54:04.700
00:58:27.337 : en:00:58:27.337
01:01:18.008 : en:01:01:18.008
01:03:33.435 : en:01:03:33.435
01:05:51.906 : en:01:05:51.906
01:08:16.718 : en:01:08:16.718
01:09:56.067 : en:01:09:56.067
01:10:43.990 : en:01:10:43.990
01:16:04.185 : en:01:16:04.185
01:18:45.304 : en:01:18:45.304
01:19:53.747 : en:01:19:53.747
01:26:31.937 : en:01:26:31.937
01:28:15.123 : en:01:28:15.123
01:31:33.530 : en:01:31:33.530
01:35:37.190 : en:01:35:37.190
01:39:34.594 : en:01:39:34.594
01:41:02.265 : en:01:41:02.265
01:43:59.733 : en:01:43:59.733