Telecharger Down by Law [DVDRiP] French

Qualité BDRiP | VOSTFR (Anglais)

Down by Law

Down by Law

Origine du film : Allemand, Américain
Réalisateur : Jim Jarmusch
Acteurs : Tom Waits, John Lurie, Roberto Benigni
Genre : Comédie dramatique
Durée : 1h46min
Date de sortie : 12 novembre 1986
Année de production : 1986
Note spectateurs : Down by Law

; »>4/5 (960)
Bande annonce :

240195ba6816d799dd334e33ae5df3c1

19432913″>Cliquez-ici pour voir la bande annonce 240195ba6816d799dd334e33ae5df3c1″> 19432913

240195ba6816d799dd334e33ae5df3c1

Down by Law

Dans le bayou, en Guyane, un monde de malchance et d’ennuis pour Jack et Zack. Ces deux paumés se retrouvent en prison et rencontrent Roberto, rempli de l’entrain qui leur manque. Il les entraîne à s’évader.
94312″ style= »display:inline; »>

Down by Law

Format : XviD

Down by Law

Down.by.Law.1986.VOSTFR.BRRiP.XViD.AC3.HuSh

(1400 Mo)

Uptobox
Télécharger

Uplea
Télécharger

1fichier
Télécharger

Uploaded
Télécharger

Rapidgator
Télécharger

TurboBit
Télécharger

NFO :

Afficher / Masquer le texte d4f0a64ffbbbee884bdd284fd86e8075″ class= »text_spoiler » style= »display:none; »>Format : AVI
Format/Info : Audio Video Interleave
File size : 1.37 GiB
Duration : 1h 46mn
Overall bit rate : 1 831 Kbps
Writing application : VirtualDubMod 1.5.10.2 (build 2542/release)
Writing library : VirtualDubMod build 2542/release

Video
ID : 0
Format : MPEG-4 Visual
Format profile : Advanced [email protected]
Format settings, BVOP : 1
Format settings, QPel : No
Format settings, GMC : No warppoints
Format settings, Matrix : Default (H.263)
Muxing mode : Packed bitstream
Codec ID : XVID
Codec ID/Hint : XviD
Duration : 1h 46mn
Bit rate : 1 375 Kbps
Width : 704 pixels
Height : 400 pixels
Display aspect ratio : 16:9
Frame rate : 23.976 fps
Color space : YUV
Chroma subsampling : 4:2:0
Bit depth : 8 bits
Scan type : Progressive
Compression mode : Lossy
Bits/(Pixel*Frame) : 0.204
Stream size : 1.03 GiB (75%)
Writing library : XviD 64

Audio
ID : 1
Format : AC-3
Format/Info : Audio Coding 3
Mode extension : CM (complete main)
Format settings, Endianness : Big
Codec ID : 2000
Duration : 1h 46mn
Bit rate mode : Constant
Bit rate : 448 Kbps
Channel(s) : 6 channels
Channel positions : Front: L C R, Side: L R, LFE
Sampling rate : 48.0 KHz
Compression mode : Lossy
Stream size : 343 MiB (24%)
Alignment : Split accross interleaves
Interleave, duration : 64 ms (1.53 video frames)
Interleave, preload duratio : 500 ms

Jeux Gratuit
15354131_1854970838071206_1069261547_o.png