Télécharger Dragon Eyes French

(TRUEFRENCH = Vraie voix française)

(AC3 = Dolby Digital 5.1)

Qualité DVDRiP | TRUEFRENCH | AC3

Origine du film : Américain
Réalisateur : John Hyams
Acteurs : Jean-Claude Van Damme, Peter Weller, Cung Le
Genre : Action
Durée : 1h 31min
Année de production : 2012
Note presse : 2,5/5
Note spectateurs : 2,5/5 (17)

Hong se donne pour mission de protéger la ville de Saint-Jude. Il est prêt à combattre pour la sauver des trafiquants de drogue et des corrompus qui la détruisent.

Nom de la release : Dragon.Eyes.2012.TRUEFRENCH.DVDRiP.XviD.AC3-FMS 13574″ style= »display:inline; »>

Qualité : DVDRiP
Format : DivX
Langue : Français
Taille totale : 1300 Mo

1fichier
Télécharger

Uptobox
Télécharger

Free
Télécharger

Uploaded
Télécharger

Rapidgator
Télécharger

TurboBit
Télécharger

NFO :

Afficher / Masquer le texte db0a180d3617a6c45151d7f0c1cddf7a » class= »text_spoiler » style= »display:none; »>Format : AVI
Format/Info : Audio Video Interleave
File size : 1.37 GiB
Duration : 1h 27mn
Overall bit rate : 2 240 Kbps
Writing application : VirtualDubMod 1.5.4.1 (build 2178/release)
Writing library : VirtualDubMod build 2178/release

Video
ID : 0
Format : MPEG-4 Visual
Format profile : Advanced [email protected]
Format settings, BVOP : No
Format settings, QPel : No
Format settings, GMC : No warppoints
Format settings, Matrix : Custom
Codec ID : XVID
Codec ID/Hint : XviD
Duration : 1h 27mn
Bit rate : 1 785 Kbps
Width : 720 pixels
Height : 304 pixels
Display aspect ratio : 2.35:1
Frame rate : 25.000 fps
Color space : YUV
Chroma subsampling : 4:2:0
Bit depth : 8 bits
Scan type : Progressive
Compression mode : Lossy
Bits/(Pixel*Frame) : 0.326
Stream size : 1.09 GiB (80%)
Writing library : XviD 1.2.1 (UTC 2008-12-04)

Audio
ID : 1
Format : AC-3
Format/Info : Audio Coding 3
Mode extension : CM (complete main)
Codec ID : 2000
Duration : 1h 27mn
Bit rate mode : Constant
Bit rate : 448 Kbps
Channel(s) : 6 channels
Channel positions : Front: L C R, Side: L R, LFE
Sampling rate : 48.0 KHz
Bit depth : 16 bits
Compression mode : Lossy
Stream size : 280 MiB (20%)
Alignment : Split accross interleaves
Interleave, duration : 96 ms (2.40 video frames)
Interleave, preload duration : 96 ms
Language : French