Telecharger Dragons 2 [BLURAY 720p] French

(TRUEFRENCH = Vraie voix française)

BLURAY 720p | MULTiLANGUES (Avec TRUEFRENCH)

Dragons 2

Dragons 2

Dragons 2

Origine du film : Américain
Réalisateur : Dean DeBlois
Acteurs : Jay Baruchel, Cate Blanchett, Gerard Butler
Genre : Animation, Aventure, Famille
Durée : 1h43min
Date de sortie : 2 juillet 2014
Année de production : 2014
Titre Original : How to Train Your Dragon 2
Distribué par : Twentieth Century Fox France
Note presse : Dragons 2 4,0/5
Note spectateurs : Dragons 2

; »>4,5/5 (5 355)
Bande annonce :

0c322fc5362775a741d9294dc335e6a4

19544709″>Cliquez-ici pour voir la bande annonce 0c322fc5362775a741d9294dc335e6a4″> 19544709

0c322fc5362775a741d9294dc335e6a4

Dragons 2

Tandis qu’Astrid, Rustik et le reste de la bande se défient durant des courses sportives de dragons devenues populaires sur l’île, notre duo désormais inséparable parcourt les cieux, à la découverte de territoires inconnus et de nouveaux mondes. Au cours de l’une de leurs aventures, ils découvrent une grotte secrète qui abrite des centaines de dragons sauvages, dont le mystérieux Dragon Rider. Les deux amis se retrouvent alors au centre d’une lutte visant à maintenir la paix. Harold et Krokmou vont se battre pour défendre leurs valeurs et préserver le destin des hommes et des dragons. 62545″ style= »display:inline; »>

Dragons 2

Qualité : BLURAY 720p
Format : MKV
Sous-titre : Français
Découpé avec : Winrar
Nombre de fichiers : 5 Fichiers
Taille des fichiers : 1000 Mo + 420 Mo

Dragons 2

[Liens Interchangeables]

How.to.Train.Your.Dragon.2.2014.MULTi.TRUEFRENCH.720p.BluRay.x264-RiV3R ( 4300 Mo)

Uptobox
Télécharger

Uplea
Télécharger

1fichier
Télécharger

Uploaded
Télécharger

Rapidgator
Télécharger

TurboBit
Télécharger

[ 1 lien Premium – 4,3 Go ]

Uptobox
Télécharger

Uplea
Télécharger

1fichier
Télécharger

Uploaded
Télécharger

TurboBit
Télécharger

NFO :

Afficher / Masquer le texte e08300fbb47f43ecb61045cfe178001e » class= »text_spoiler » style= »display:none; »>General
Unique ID : 146262055646911672481321736085434048936 (0x6E090C19DFAD6AEF0048543AE19CA1A8)
Complete name : How.to.Train.Your.Dragon.2.2014.MULTi.TRUEFRENCH.720p.BluRay.x264-RiV3R.mkv
Format : Matroska
Format version : Version 4 / Version 2
File size : 4.20 GiB
Duration : 1h 41mn
Overall bit rate : 5 903 Kbps
Encoded date : UTC 2014-10-29 15:30:22
Writing application : mkvmerge v7.3.0 (‘Nouages’) 64bit built on Oct 22 2014 17:24:26
Writing library : libebml v1.3.0 + libmatroska v1.4.1
DURATION : 01:33:25.266000000
NUMBER_OF_FRAMES : 1274
NUMBER_OF_BYTES : 35205
_STATISTICS_WRITING_APP : mkvmerge v7.3.0 (‘Nouages’) 64bit built on Oct 22 2014 17:24:26
_STATISTICS_WRITING_DATE_UTC : 2014-10-29 15:30:22
_STATISTICS_TAGS : BPS DURATION NUMBER_OF_FRAMES NUMBER_OF_BYTES

Video
ID : 1
Format : AVC
Format/Info : Advanced Video Codec
Format profile : [email protected]
Format settings, CABAC : Yes
Format settings, ReFrames : 12 frames
Codec ID : V_MPEG4/ISO/AVC
Duration : 1h 41mn
Bit rate : 3 509 Kbps
Width : 1 280 pixels
Height : 544 pixels
Display aspect ratio : 2.35:1
Frame rate mode : Constant
Frame rate : 23.976 fps
Color space : YUV
Chroma subsampling : 4:2:0
Bit depth : 8 bits
Scan type : Progressive
Bits/(Pixel*Frame) : 0.210
Stream size : 2.50 GiB (59%)
Writing library : x264 core 142
Encoding settings : cabac=1 / ref=12 / deblock=1:-2:-2 / analyse=0x3:0x113 / me=umh / subme=11 / psy=1 / psy_rd=0.98:0.02 / mixed_ref=1 / me_range=64 / chroma_me=1 / trellis=2 / 8x8dct=1 / cqm=0 / deadzone=6,6 / fast_pskip=0 / chroma_qp_offset=-3 / threads=6 / lookahead_threads=1 / sliced_threads=0 / nr=0 / decimate=1 / interlaced=0 / bluray_compat=0 / constrained_intra=0 / bframes=8 / b_pyramid=2 / b_adapt=2 / b_bias=0 / direct=3 / weightb=1 / open_gop=0 / weightp=2 / keyint=240 / keyint_min=23 / scenecut=40 / intra_refresh=0 / rc_lookahead=240 / rc=crf / mbtree=1 / crf=18.0 / qcomp=0.75 / qpmin=0 / qpmax=69 / qpstep=4 / vbv_maxrate=50000 / vbv_bufsize=50000 / crf_max=0.0 / nal_hrd=none / filler=0 / ip_ratio=1.40 / aq=2:0.90
Language : English
Default : Yes
Forced : No
Color primaries : BT.709
Transfer characteristics : BT.709
Matrix coefficients : BT.709
DURATION : 01:41:54.985000000
NUMBER_OF_FRAMES : 146613
NUMBER_OF_BYTES : 2769233482
_STATISTICS_WRITING_APP : mkvmerge v7.3.0 (‘Nouages’) 64bit built on Oct 22 2014 17:24:26
_STATISTICS_WRITING_DATE_UTC : 2014-10-29 15:30:22
_STATISTICS_TAGS : BPS DURATION NUMBER_OF_FRAMES NUMBER_OF_BYTES

Audio #1
ID : 2
Format : DTS
Format/Info : Digital Theater Systems
Mode : 16
Format settings, Endianness : Big
Codec ID : A_DTS
Duration : 1h 41mn
Bit rate mode : Constant
Bit rate : 768 Kbps
Channel(s) : 6 channels
Channel positions : Front: L C R, Side: L R, LFE
Sampling rate : 48.0 KHz
Bit depth : 24 bits
Compression mode : Lossy
Stream size : 560 MiB (13%)
Title : VFF DTS 5.1 @ 768 Kbps
Language : French
Default : Yes
Forced : No

Audio #2
ID : 3
Format : DTS
Format/Info : Digital Theater Systems
Format profile : ES
Mode : 16
Format settings, Endianness : Big
Codec ID : A_DTS
Duration : 1h 41mn
Bit rate mode : Constant
Bit rate : 1 509 Kbps
Channel(s) : 6 channels
Channel positions : Front: L C R, Side: L R, LFE
Sampling rate : 48.0 KHz
Bit depth : 24 bits
Compression mode : Lossy
Stream size : 1.07 GiB (26%)
Title : VO DTS 5.1 @ 1509 Kbps
Language : English
Default : No
Forced : No

Text #1
ID : 4
Format : UTF-8
Codec ID : S_TEXT/UTF8
Codec ID/Info : UTF-8 Plain Text
Title : ST FR Forces
Language : French
Default : Yes
Forced : Yes

Text #2
ID : 5
Format : UTF-8
Codec ID : S_TEXT/UTF8
Codec ID/Info : UTF-8 Plain Text
Title : ST FR Complets
Language : French
Default : No
Forced : No

Text #3
ID : 6
Format : UTF-8
Codec ID : S_TEXT/UTF8
Codec ID/Info : UTF-8 Plain Text
Title : ST ENG Full
Language : English
Default : No
Forced : No

Menu
00:00:00.000 : en:Chapter 1
00:03:27.999 : en:Chapter 2
00:05:20.695 : en:Chapter 3
00:07:46.007 : en:Chapter 4
00:10:16.032 : en:Chapter 5
00:13:16.337 : en:Chapter 6
00:16:59.059 : en:Chapter 7
00:20:01.700 : en:Chapter 8
00:23:43.255 : en:Chapter 9
00:27:14.466 : en:Chapter 10
00:29:21.468 : en:Chapter 11
00:33:41.936 : en:Chapter 12
00:37:05.473 : en:Chapter 13
00:39:06.969 : en:Chapter 14
00:40:59.165 : en:Chapter 15
00:45:03.992 : en:Chapter 16
00:47:16.625 : en:Chapter 17
00:51:51.525 : en:Chapter 18
00:54:35.730 : en:Chapter 19
00:56:15.997 : en:Chapter 20
01:00:33.171 : en:Chapter 21
01:04:28.781 : en:Chapter 22
01:06:34.949 : en:Chapter 23
01:09:44.138 : en:Chapter 24
01:14:01.854 : en:Chapter 25
01:18:35.127 : en:Chapter 26
01:21:07.153 : en:Chapter 27
01:22:55.053 : en:Chapter 28
01:24:30.065 : en:Chapter 29
01:28:04.654 : en:Chapter 30
01:31:03.499 : en:Chapter 31
01:32:21.994 : en:Chapter 32
01:41:54.858 : en:Chapter 33