Telecharger Dragons 2 [BLURAY 720p] French

BLURAY 720p | FRENCH

Dragons 2

Dragons 2

Dragons 2

Origine du film : Américain
Réalisateur : Dean DeBlois
Acteurs : Jay Baruchel, Cate Blanchett, Gerard Butler
Genre : Animation, Aventure, Famille
Durée : 1h43min
Date de sortie : 2 juillet 2014
Année de production : 2014
Titre Original : How to Train Your Dragon 2
Distribué par : Twentieth Century Fox France
Note presse : Dragons 2 4,0/5
Note spectateurs : Dragons 2

; »>4,5/5 (5 091)
Bande annonce :

e09c78edb628a7802c75dd81ae74aa3a

19544709″>Cliquez-ici pour voir la bande annonce e09c78edb628a7802c75dd81ae74aa3a »> 19544709

e09c78edb628a7802c75dd81ae74aa3a

Dragons 2

Tandis qu’Astrid, Rustik et le reste de la bande se défient durant des courses sportives de dragons devenues populaires sur l’île, notre duo désormais inséparable parcourt les cieux, à la découverte de territoires inconnus et de nouveaux mondes. Au cours de l’une de leurs aventures, ils découvrent une grotte secrète qui abrite des centaines de dragons sauvages, dont le mystérieux Dragon Rider. Les deux amis se retrouvent alors au centre d’une lutte visant à maintenir la paix. Harold et Krokmou vont se battre pour défendre leurs valeurs et préserver le destin des hommes et des dragons. 61227″ style= »display:inline; »>

Dragons 2

Qualité : BLURAY 720p
Format : MKV
Langue : Français
Sous-titre : Français
Nombre de fichiers : 5 Fichiers
Taille des fichiers : 1000 Mo + 311 Mo

Dragons 2

Ps: Les liens sont interchangeables, prenez une partie de chaque hébergeur pour télécharger plusieurs fichiers en même temps.

How.to.Train.Your.Dragon.2.2014.FRENCH.720p.Bluray.x264-VENUM ( 4311 Mo)

Uptobox
Télécharger

Uplea
Upload en panne.

1fichier
Télécharger

Uploaded
Télécharger

Rapidgator
Télécharger

TurboBit
Télécharger

1 Lien Premium – 4.2 Go

Uptobox Premium
Télécharger

1fichier Premium
Télécharger

Uploaded Premium
Télécharger

TurboBit Premium
Télécharger

NFO :

Afficher / Masquer le texte b9ba4fb70c612e64128e1b109418f6db » class= »text_spoiler » style= »display:none; »>Format : Matroska
Format version : Version 2
File size : 4.21 GiB
Duration : 1h 41mn
Overall bit rate : 5 915 Kbps
Encoded date : UTC 2014-10-18 13:56:14
Writing application : mkvmerge v4.4.0 (‘Die Wiederkehr’) built on Oct 31 2010 21:52:48
Writing library : libebml v1.0.0 + libmatroska v1.0.0

Video
ID : 1
Format : AVC
Format/Info : Advanced Video Codec
Format profile : [email protected]
Format settings, CABAC : Yes
Format settings, ReFrames : 4 frames
Muxing mode : Header stripping
Codec ID : V_MPEG4/ISO/AVC
Duration : 1h 41mn
Bit rate : 5 500 Kbps
Width : 1 280 pixels
Height : 544 pixels
Display aspect ratio : 2.35:1
Frame rate mode : Variable
Frame rate : 23.976 fps
Color space : YUV
Chroma subsampling : 4:2:0
Bit depth : 8 bits
Scan type : Progressive
Bits/(Pixel*Frame) : 0.329
Stream size : 3.81 GiB (90%)
Writing library : x264 core 130 r2273 b3065e6
Encoding settings : cabac=1 / ref=1 / deblock=1:0:0 / analyse=0x3:0x113 / me=hex / subme=2 / psy=1 / psy_rd=1.00:0.00 / mixed_ref=0 / me_range=16 / chroma_me=1 / trellis=0 / 8x8dct=1 / cqm=0 / deadzone=21,11 / fast_pskip=1 / chroma_qp_offset=0 / threads=6 / lookahead_threads=2 / sliced_threads=0 / nr=0 / decimate=1 / interlaced=0 / bluray_compat=0 / constrained_intra=0 / bframes=3 / b_pyramid=2 / b_adapt=1 / b_bias=0 / direct=1 / weightb=1 / open_gop=0 / weightp=1 / keyint=240 / keyint_min=24 / scenecut=40 / intra_refresh=0 / rc_lookahead=10 / rc=abr / mbtree=1 / bitrate=5500 / ratetol=1.0 / qcomp=0.60 / qpmin=0 / qpmax=69 / qpstep=4 / vbv_maxrate=62500 / vbv_bufsize=78125 / nal_hrd=none / ip_ratio=1.40 / aq=1:1.00
Language : English
Default : Yes
Forced : No
Color primaries : BT.709-5, BT.1361, IEC 61966-2-4, SMPTE RP177
Transfer characteristics : BT.709-5, BT.1361
Matrix coefficients : BT.709-5, BT.1361, IEC 61966-2-4 709, SMPTE RP177

Audio
ID : 2
Format : AC-3
Format/Info : Audio Coding 3
Mode extension : CM (complete main)
Format settings, Endianness : Big
Muxing mode : Header stripping
Codec ID : A_AC3
Duration : 1h 41mn
Bit rate mode : Constant
Bit rate : 448 Kbps
Channel(s) : 6 channels
Channel positions : Front: L C R, Side: L R, LFE
Sampling rate : 48.0 KHz
Bit depth : 16 bits
Compression mode : Lossy
Stream size : 327 MiB (8%)
Title : Fran?ais
Language : French
Default : Yes
Forced : No