Telecharger Duel [DVDRiP] French

(TRUEFRENCH = Vraie voix française)

Qualité BDRiP mkv | TRUEFRENCH

Duel

Duel

Origine du film : Américain
Réalisateur : Steven Spielberg
Acteurs : Dennis Weaver, Eddie Firestone, Gene Dynarski
Genre : Drame, Thriller
Durée : 1h32min
Date de sortie : 21 mars 1973
Année de production : 1971
Note presse : Duel 5,0/5
Note spectateurs : Duel

; »>4/5 (5 599)
Bande annonce :

2ea0820d823d1170af117f3609d5a988

18860003″>Cliquez-ici pour voir la bande annonce 2ea0820d823d1170af117f3609d5a988″> 18860003

2ea0820d823d1170af117f3609d5a988

Duel

Sur une route californienne, un modeste employé de commerce se voit pris en chasse par un énorme camion. Une course-poursuite effrénée s’engage…
104611″ style= »display:inline; »>

Duel

Format : MKV

Duel

Duel.1971.FRENCH.SUBFORCED.BRRip.x264.AC3-FREAKY

(1400 Mo)

Uptobox
Télécharger

Uploaded
Télécharger

TurboBit
Télécharger

Rapidgator
Télécharger

Uplea
Télécharger

1fichier
Télécharger

NFO :

Afficher / Masquer le texte bc931f1fa461d212693d589837d3e712″ class= »text_spoiler » style= »display:none; »>General
Complete name : Duel.1971.FRENCH.SUBFORCED.BRRip.x264.AC3-FREAKY.mkv
Format : Matroska
Format version : Version 2
File size : 1.37 GiB
Duration : 1h 29mn
Overall bit rate : 2 197 Kbps
Writing application : Lavf54.63.104
Writing library : Lavf54.63.104

Video
ID : 1
Format : AVC
Format/Info : Advanced Video Codec
Format profile : [email protected]
Format settings, CABAC : Yes
Format settings, ReFrames : 4 frames
Codec ID : V_MPEG4/ISO/AVC
Duration : 1h 29mn
Bit rate : 1 746 Kbps
Width : 720 pixels
Height : 400 pixels
Display aspect ratio : 16:9
Frame rate mode : Constant
Frame rate : 23.976 fps
Color space : YUV
Chroma subsampling : 4:2:0
Bit depth : 8 bits
Scan type : Progressive
Bits/(Pixel*Frame) : 0.253
Stream size : 1.06 GiB (78%)
Writing library : x264 core 123 r2189 35cf912
Encoding settings : cabac=1 / ref=3 / deblock=1:0:0 / analyse=0x3:0x133 / me=umh / subme=8 / psy=1 / psy_rd=1.00:0.00 / mixed_ref=1 / me_range=24 / chroma_me=1 / trellis=1 / 8x8dct=1 / cqm=0 / deadzone=21,11 / fast_pskip=1 / chroma_qp_offset=-2 / threads=3 / sliced_threads=0 / nr=0 / decimate=1 / interlaced=0 / bluray_compat=0 / constrained_intra=0 / bframes=3 / b_pyramid=2 / b_adapt=1 / b_bias=0 / direct=1 / weightb=1 / open_gop=0 / weightp=2 / keyint=250 / keyint_min=25 / scenecut=40 / intra_refresh=0 / rc_lookahead=40 / rc=2pass / mbtree=1 / bitrate=1746 / ratetol=1.0 / qcomp=0.60 / qpmin=10 / qpmax=51 / qpstep=4 / cplxblur=20.0 / qblur=0.5 / ip_ratio=1.40 / aq=1:1.00
Default : Yes
Forced : No

Audio
ID : 2
Format : AC-3
Format/Info : Audio Coding 3
Mode extension : CM (complete main)
Format settings, Endianness : Big
Codec ID : A_AC3
Duration : 1h 29mn
Bit rate mode : Constant
Bit rate : 448 Kbps
Channel(s) : 6 channels
Channel positions : Front: L C R, Side: L R, LFE
Sampling rate : 48.0 KHz
Compression mode : Lossy
Delay relative to video : 5ms
Stream size : 286 MiB (20%)
Language : French
Default : Yes
Forced : No

Source : Duel.1971.MULTi.1080p.BluRay.x264-ULSHD

Jeux Gratuit
15354131_1854970838071206_1069261547_o.png