Telecharger Edge of sanity [DVDRiP] French

(TRUEFRENCH = Vraie voix française)

Qualité DVDRiP | TRUEFRENCH

Edge of sanity

Edge of sanity

Edge of sanity

Origine du film : Français, américain, britannique, hongrois
Réalisateur : Gérard Kikoïne
Acteurs : Anthony Perkins, Glynis Barber, Sarah Maur Thorp
Genre : Epouvante-horreur
Durée : 1h 25min
Année de production : 1989
Note spectateurs : Edge of sanity

; »>3/5 (1)
Bande annonce :

631cbfc50165f930712e330c8c07a88e

19493531″>Cliquez-ici pour voir la bande annonce 631cbfc50165f930712e330c8c07a88e »> 19493531

631cbfc50165f930712e330c8c07a88e

Edge of sanity

Le Docteur Jekyll effectue des recherches en se servant d'une matière très particulière : la cocaïne. Bientôt, il va perdre tout contrôle et se transformer en Jack Hyde… 36760″ style= »display:inline; »>

Qualité : DVDRiP
Format : XviD
Langue : Français
Taille totale : 700 Mo

1fichier
Télécharger

Uptobox
Télécharger

Free
Télécharger

Uploaded
Télécharger

Rapidgator
Télécharger

TurboBit
Télécharger

NFO :

Afficher / Masquer le texte 8e7cec8e6ebb7aad92bd4cd54ff748ef » class= »text_spoiler » style= »display:none; »>General

Complete name : C:UsersalexisDownloadspour bien uploaderF–Title_01.avi

Format : AVI

Format/Info : Audio Video Interleave

File size : 840 KiB

Duration : 9s 432ms

Overall bit rate : 729 Kbps

Writing application : Lavf52.31.0

Video

ID : 0

Format : MPEG-4 Visual

Format profile : [email protected]

Format settings, BVOP : No

Format settings, QPel : No

Format settings, GMC : No warppoints

Format settings, Matrix : Default (H.263)

Codec ID : FMP4

Duration : 9s 400ms

Bit rate : 582 Kbps

Width : 720 pixels

Height : 576 pixels

Display aspect ratio : 16:9

Frame rate : 25.000 fps

Standard : PAL

Color space : YUV

Chroma subsampling : 4:2:0

Bit depth : 8 bits

Scan type : Progressive

Compression mode : Lossy

Bits/(Pixel*Frame) : 0.056

Stream size : 668 KiB (80%)

Writing library : Lavc52.20.0

Audio

ID : 1

Format : MPEG Audio

Format version : Version 1

Format profile : Layer 3

Mode : Joint stereo

Mode extension : MS Stereo

Codec ID : 55

Codec ID/Hint : MP3

Duration : 9s 432ms

Bit rate mode : Constant

Bit rate : 128 Kbps

Channel(s) : 2 channels

Sampling rate : 48.0 KHz

Compression mode : Lossy

Stream size : 147 KiB (18%)

Alignment : Aligned on interleaves

Interleave, duration : 24 ms (0.60 video frame)

Writing library : LAME3.97