Telecharger Eh mec, elle est où ma caisse ? [BLURAY 720p] French

BLURAY 720p | MULTiLANGUES (Avec VFi)

Eh mec, elle est où ma caisse ?

Eh mec, elle est où ma caisse ?

Eh mec, elle est où ma caisse ?

Origine du film : Américain
Réalisateur : Danny Leiner
Acteurs : Ashton Kutcher, Seann William Scott, Jennifer Garner
Genre : Comédie, Science fiction
Durée : 1h24min
Date de sortie : 18 avril 2001
Année de production : 2000
Titre Original : Dude, Where's My Car?
Distribué par : UFD
Note presse : Eh mec, elle est où ma caisse ? 2,6/5
Note spectateurs : Eh mec, elle est où ma caisse ?

; »>2,3/5 (3 250)
Bande annonce :

2486d8eba620aa31af75ced1490523dc

159″>Cliquez-ici pour voir la bande annonce 2486d8eba620aa31af75ced1490523dc »> 159

2486d8eba620aa31af75ced1490523dc

Eh mec, elle est où ma caisse ?

Jesse et Chester, deux fêtards d'une vingtaine d'années, ont passé une nuit incroyable. Malheureusement, à leur réveil, ils ne se rappellent plus de rien, y compris de l'endroit où ils ont garé leur voiture. Or, celle-ci contenait les précieux cadeaux d'anniversaire qu'ils avaient achetés pour leurs petites amies jumelles, Wanda et Wilma.Jesse et Chester ont beau leur expliquer que le véhicule, où se trouvaient les cadeaux, a disparu, elles ne veulent rien entendre. Une seule solution s'offre à eux : retourner sur leurs pas afin d'enquêter sur les événements de la veille et la disparition de leur voiture. Il s'est forcément passé quelque chose de spécial pour qu'ils n'aient plus souvenir de quoi que ce soit. Et comment se fait-il qu'ils soient devenus les coqueluches de toutes les filles ?
52545″ style= »display:inline; »>

Eh mec, elle est où ma caisse ?

Qualité : BLURAY 720p
Format : MKV
Découpé avec : Winrar
Nombre de fichiers : 4 Fichiers
Taille des fichiers : 1000 Mo + 178 Mo

Eh mec, elle est où ma caisse ?

[Liens Interchangeables]

Dude.Where’s.My.Car.2000.MULTI.720p.BluRay.x264.AC3-LCDS ( 3178 Mo)

Uptobox
Télécharger

Uplea
Télécharger

1fichier
Télécharger

Free
Télécharger

Uploaded
Télécharger

Rapidgator
Télécharger

TurboBit
Télécharger

[ 1 lien Premium ]

Uptobox
Télécharger

1fichier
Télécharger

Free
Télécharger

Uploaded
Télécharger

TurboBit
Télécharger

NFO :

Afficher / Masquer le texte 2f1961afe55aaa0b1ba9d37efafdb656″ class= »text_spoiler » style= »display:none; »>General
Complete name : Dude.Where’s.My.Car.2000.MULTI.720p.BluRay.x264.AC3-LCDS.mkv
Format : Matroska
Format version : Version 4 / Version 2
File size : 3.10 GiB
Duration : 1h 23mn
Overall bit rate : 5 349 Kbps
Encoded date : UTC 2014-05-27 20:37:12
Writing application : mkvmerge v6.9.1 (‘Blue Panther’) 64bit built on Apr 18 2014 18:23:38
Writing library : libebml v1.3.0 + libmatroska v1.4.1

Video
ID : 1
Format : AVC
Format/Info : Advanced Video Codec
Format profile : [email protected]
Format settings, CABAC : Yes
Format settings, ReFrames : 5 frames
Codec ID : V_MPEG4/ISO/AVC
Duration : 1h 23mn
Bit rate : 4 450 Kbps
Width : 1 280 pixels
Height : 694 pixels
Display aspect ratio : 1.85:1
Frame rate mode : Constant
Frame rate : 23.976 fps
Color space : YUV
Chroma subsampling : 4:2:0
Bit depth : 8 bits
Scan type : Progressive
Bits/(Pixel*Frame) : 0.209
Stream size : 2.52 GiB (81%)
Title : Video
Writing library : x264 core 130 r2273 b3065e6
Encoding settings : cabac=1 / ref=5 / deblock=1:0:0 / analyse=0x3:0x113 / me=umh / subme=8 / psy=1 / psy_rd=1.00:0.00 / mixed_ref=1 / me_range=16 / chroma_me=1 / trellis=1 / 8x8dct=1 / cqm=0 / deadzone=21,11 / fast_pskip=1 / chroma_qp_offset=-2 / threads=12 / lookahead_threads=2 / sliced_threads=0 / nr=0 / decimate=1 / interlaced=0 / bluray_compat=0 / constrained_intra=0 / bframes=3 / b_pyramid=2 / b_adapt=2 / b_bias=0 / direct=3 / weightb=1 / open_gop=0 / weightp=2 / keyint=240 / keyint_min=24 / scenecut=40 / intra_refresh=0 / rc_lookahead=50 / rc=2pass / mbtree=1 / bitrate=4450 / ratetol=1.0 / qcomp=0.60 / qpmin=0 / qpmax=69 / qpstep=4 / cplxblur=20.0 / qblur=0.5 / vbv_maxrate=50000 / vbv_bufsize=50000 / nal_hrd=none / ip_ratio=1.40 / aq=1:1.00
Default : Yes
Forced : No
Color primaries : BT.709
Transfer characteristics : BT.709
Matrix coefficients : BT.709

Audio #1
ID : 2
Format : AC-3
Format/Info : Audio Coding 3
Mode extension : CM (complete main)
Format settings, Endianness : Big
Codec ID : A_AC3
Duration : 1h 23mn
Bit rate mode : Constant
Bit rate : 448 Kbps
Channel(s) : 6 channels
Channel positions : Front: L C R, Side: L R, LFE
Sampling rate : 48.0 KHz
Bit depth : 16 bits
Compression mode : Lossy
Stream size : 266 MiB (8%)
Title : Anglais 5.1
Language : English
Default : No
Forced : No

Audio #2
ID : 3
Format : AC-3
Format/Info : Audio Coding 3
Mode extension : CM (complete main)
Format settings, Endianness : Big
Codec ID : A_AC3
Duration : 1h 23mn
Bit rate mode : Constant
Bit rate : 448 Kbps
Channel(s) : 6 channels
Channel positions : Front: L C R, Side: L R, LFE
Sampling rate : 48.0 KHz
Bit depth : 16 bits
Compression mode : Lossy
Stream size : 266 MiB (8%)
Title : Francais 5.1
Language : French
Default : Yes
Forced : No

Text #1
ID : 4
Format : UTF-8
Codec ID : S_TEXT/UTF8
Codec ID/Info : UTF-8 Plain Text
Title : Anglais
Language : English
Default : No
Forced : No

Text #2
ID : 5
Format : UTF-8
Codec ID : S_TEXT/UTF8
Codec ID/Info : UTF-8 Plain Text
Title : Francais
Language : French
Default : No
Forced : No