Telecharger Elena et les Hommes [DVDRiP] French

Qualité BLURAY 720p | FRENCH | son DTS

Elena et les Hommes

Elena et les Hommes

Origine du film : Italien, Français
Réalisateur : Jean Renoir
Acteurs : Ingrid Bergman, Jean Marais, Mel Ferrer
Genre : Comédie, Drame, Historique
Durée : 1h36min
Date de sortie : 12 septembre 1956
Année de production : 1956
Note spectateurs : Elena et les Hommes

; »>3,2/5 (28)

Elena et les Hommes

Parabole ironique et joyeuse sur la vanité du pouvoir inspirée par la vie du général Boulanger.
104413″ style= »display:inline; »>

Elena et les Hommes

Format : MKV
Découpé avec : Winrar

Elena et les Hommes

Elena.et.les.hommes.1956.FRENCH.720p.BluRay.DTS.x264-NOTAG

(4471 Mo)

[Liens Interchangeables entre hébergeurs: 4x 1000 Mo + 1x 471 Mo]

Uptobox
Télécharger

Uplea
Télécharger

1fichier
Télécharger

Uploaded
Télécharger

Rapidgator
Télécharger

TurboBit
Télécharger

[ Liens Premium ]

Uptobox
Télécharger

Uplea
Télécharger

1fichier
Télécharger

Uploaded
Télécharger

TurboBit
Télécharger

NFO :

Afficher / Masquer le texte 594eb1a7a62275718db90b1482c2814c » class= »text_spoiler » style= »display:none; »>Elena.et.les.hommes.1956.FRENCH.720p.BluRay.DTS.x264-NOTAG.mkv
Format : Matroska
Format version : Version 4 / Version 2
File size : 4.37 GiB
Duration : 1h 38mn
Overall bit rate : 6 355 Kbps
Encoded date : UTC 2015-11-06 16:41:52
Writing application : mkvmerge v7.4.0 (‘Circles’) 64bit built on Dec 12 2014 12:19:56
Writing library : libebml v1.3.0 + libmatroska v1.4.1
DURATION : 01:38:23.072000000
NUMBER_OF_FRAMES : 553413
NUMBER_OF_BYTES : 1113466956
_STATISTICS_WRITING_APP : mkvmerge v7.4.0 (‘Circles’) 64bit built on Dec 12 2014 12:19:56
_STATISTICS_WRITING_DATE_UTC : 2015-11-06 16:41:52
_STATISTICS_TAGS : BPS DURATION NUMBER_OF_FRAMES NUMBER_OF_BYTES

Video
ID : 1
Format : AVC
Format/Info : Advanced Video Codec
Format profile : [email protected]
Format settings, CABAC : Yes
Format settings, ReFrames : 5 frames
Codec ID : V_MPEG4/ISO/AVC
Duration : 1h 38mn
Bit rate : 4 843 Kbps
Width : 960 pixels
Height : 720 pixels
Display aspect ratio : 4:3
Frame rate mode : Constant
Frame rate : 24.000 fps
Color space : YUV
Chroma subsampling : 4:2:0
Bit depth : 8 bits
Scan type : Progressive
Bits/(Pixel*Frame) : 0.292
Stream size : 3.24 GiB (74%)
Writing library : x264 core 124 r2197 69a0443
Encoding settings : cabac=1 / ref=5 / deblock=1:0:0 / analyse=0x3:0x113 / me=umh / subme=7 / psy=1 / psy_rd=1.00:0.00 / mixed_ref=1 / me_range=16 / chroma_me=1 / trellis=1 / 8x8dct=1 / cqm=0 / deadzone=21,11 / fast_pskip=0 / chroma_qp_offset=-2 / threads=12 / sliced_threads=0 / nr=0 / decimate=1 / interlaced=0 / bluray_compat=0 / constrained_intra=0 / bframes=3 / b_pyramid=2 / b_adapt=1 / b_bias=0 / direct=1 / weightb=1 / open_gop=0 / weightp=2 / keyint=250 / keyint_min=24 / scenecut=40 / intra_refresh=0 / rc_lookahead=40 / rc=2pass / mbtree=1 / bitrate=4843 / ratetol=1.0 / qcomp=0.60 / qpmin=0 / qpmax=69 / qpstep=4 / cplxblur=20.0 / qblur=0.5 / ip_ratio=1.40 / aq=1:1.00
Default : Yes
Forced : No
DURATION : 01:38:23.042000000
NUMBER_OF_FRAMES : 141673
NUMBER_OF_BYTES : 3573782233
_STATISTICS_WRITING_APP : mkvmerge v7.4.0 (‘Circles’) 64bit built on Dec 12 2014 12:19:56
_STATISTICS_WRITING_DATE_UTC : 2015-11-06 16:41:52
_STATISTICS_TAGS : BPS DURATION NUMBER_OF_FRAMES NUMBER_OF_BYTES

Audio
ID : 2
Format : DTS
Format/Info : Digital Theater Systems
Mode : 16
Format settings, Endianness : Big
Codec ID : A_DTS
Duration : 1h 38mn
Bit rate mode : Constant
Bit rate : 1 509 Kbps
Channel count : 2 channels
Channel positions : Front: L R
Sampling rate : 48.0 KHz
Bit depth : 24 bits
Compression mode : Lossy
Stream size : 1.04 GiB (24%)
Title : DTS
Language : French
Default : No
Forced : No