Telecharger En toute innocence [DVDRiP] French

(TRUEFRENCH = Vraie voix française)

Qualité DVDRiP | TRUEFRENCH

En toute innocence

En toute innocence

Origine du film : Français
Réalisateur : Alain Jessua
Acteurs : Michel Serrault, Nathalie Baye, Francois Dunoyer
Genre : Thriller
Durée : 1h32min
Année de production : 1987
Note spectateurs : En toute innocence

; »>2,9/5 (46)

En toute innocence

Un architecte, Paul, dirige avec son fils une entreprise fleurissante. Tout semble allé pour le mieux jusqu’à un accident de voiture qui prive Paul de l’usage de la parole et de ses jambes. Accident ou tentative de meurtre? Car Paul a surpris sa bru dans les bras de son amant, et leurs rapports se détèriorent très rapidement.
95303″ style= »display:inline; »>

En toute innocence

Format : XviD

En toute innocence

(700 Mo)

Uptobox
Télécharger

Uploaded
Télécharger

TurboBit
Télécharger

Rapidgator
Télécharger

Uplea
Télécharger

1fichier
Télécharger

NFO :

Afficher / Masquer le texte 4a7aa6e10b9b589897135837ab30da1f » class= »text_spoiler » style= »display:none; »>General
Complete name : En toute innocence.avi
Format : AVI
Format/Info : Audio Video Interleave
File size : 700 MiB
Duration : 1h 32mn
Overall bit rate mode : Variable
Overall bit rate : 1 063 Kbps
Writing application : VirtualDubMod 1.5.4.1 (build 2178/release)
Writing library : VirtualDubMod build 2178/release

Video
ID : 0
Format : MPEG-4 Visual
Format profile : Advanced [email protected]
Format settings, BVOP : 1
Format settings, QPel : No
Format settings, GMC : No warppoints
Format settings, Matrix : Custom
Codec ID : XVID
Codec ID/Hint : XviD
Duration : 1h 32mn
Bit rate : 945 Kbps
Width : 672 pixels
Height : 400 pixels
Display aspect ratio : 1.680
Frame rate : 25.000 fps
Color space : YUV
Chroma subsampling : 4:2:0
Bit depth : 8 bits
Scan type : Progressive
Compression mode : Lossy
Bits/(Pixel*Frame) : 0.141
Stream size : 622 MiB (89%)
Writing library : XviD 1.2.0.dev47 (UTC 2006-11-01)

Audio
ID : 1
Format : MPEG Audio
Format version : Version 1
Format profile : Layer 3
Mode : Joint stereo
Mode extension : MS Stereo
Codec ID : 55
Codec ID/Hint : MP3
Duration : 1h 32mn
Bit rate mode : Variable
Bit rate : 105 Kbps
Nominal bit rate : 128 Kbps
Channel(s) : 2 channels
Sampling rate : 48.0 KHz
Compression mode : Lossy
Stream size : 69.0 MiB (10%)
Alignment : Aligned on interleaves
Interleave, duration : 24 ms (0.60 video frame)
Interleave, preload duration : 567 ms
Writing library : LAME3.97
Encoding settings : -m j -V 4 -q 2 -lowpass 17 –abr 128