Télécharger Entre amis & voisins French

(TRUEFRENCH = Vraie voix française)

Qualité DVDRiP | TRUEFRENCH

Entre amis & voisins

Entre amis & voisins

Origine du film : Américain
Réalisateur : Neil LaBute
Acteurs : Nastassja Kinski, Jason Patric, Catherine Keener
Genre : Comédie dramatique
Durée : 1h40min
Date de sortie : 4 août 1999
Année de production : 1998
Titre Original : Your Friends & Neighbors
Distribué par : Universal
Note presse : Entre amis & voisins 2,8/5
Note spectateurs : Entre amis & voisins 2,9/5 (15)
Bande annonce :

1ec94375408858ac2aeee98a25ab1e29

19484188″>Cliquez-ici pour voir la bande annonce 1ec94375408858ac2aeee98a25ab1e29″> 19484188

1ec94375408858ac2aeee98a25ab1e29

Entre amis & voisins

Jerry est attiré par Mary, la femme de son meilleur ami, Barry. Jerry et sa petite amie, Terri, sont sexuellement dans une impasse. Quant à Mary, elle a atteint un état de quasi-frigidité avec un mari certes bien intentionné, mais possessif. Cette liaison adultère a l’effet d’une vague sur tous ceux qui sont concernés. Terry explore sa sexualité avec Cheri, une assistante d’artiste. Et avant que Mary n’aille voir encore ailleurs, Barry cherche conseil auprès de son autre meilleur ami Cary, un predateur plus à l’aise avec les hommes qu’avec les femmes.
104026″ style= »display:inline; »>

Entre amis & voisins

Format : XviD

Entre amis & voisins

(700 Mo)

Uptobox
Télécharger

Uploaded
Télécharger

TurboBit
Télécharger

Rapidgator
Télécharger

Uplea
Télécharger

1fichier
Télécharger

NFO :

Afficher / Masquer le texte ef7291b09f60e24ff8845540bf3d1930″ class= »text_spoiler » style= »display:none; »>General
Complete name : F:miponyEntre Amis & Voisins.www.zone-telechargement.com.avi
Format : AVI
Format/Info : Audio Video Interleave
File size : 702 MiB
Duration : 1h 36mn
Overall bit rate mode : Variable
Overall bit rate : 1 022 Kbps
Writing application : VirtualDubMod 1.5.10.2 (build 2540/release)
Writing library : VirtualDubMod build 2540/release

Video
ID : 0
Format : MPEG-4 Visual
Format profile : Advanced [email protected]
Format settings, BVOP : 1
Format settings, QPel : No
Format settings, GMC : No warppoints
Format settings, Matrix : Default (H.263)
Muxing mode : Packed bitstream
Codec ID : XVID
Codec ID/Hint : XviD
Duration : 1h 36mn
Bit rate : 884 Kbps
Width : 640 pixels
Height : 272 pixels
Display aspect ratio : 2.35:1
Frame rate : 25.000 fps
Color space : YUV
Chroma subsampling : 4:2:0
Bit depth : 8 bits
Scan type : Progressive
Compression mode : Lossy
Bits/(Pixel*Frame) : 0.203
Stream size : 608 MiB (87%)
Writing library : XviD 1.2.1 (UTC 2008-12-04)

Audio
ID : 1
Format : MPEG Audio
Format version : Version 1
Format profile : Layer 3
Mode : Joint stereo
Mode extension : MS Stereo
Codec ID : 55
Codec ID/Hint : MP3
Duration : 1h 36mn
Bit rate mode : Variable
Bit rate : 128 Kbps
Channel(s) : 2 channels
Sampling rate : 48.0 KHz
Compression mode : Lossy
Stream size : 85.8 MiB (12%)
Alignment : Aligned on interleaves
Interleave, duration : 24 ms (0.60 video frame)
Interleave, preload duration : 147 ms
Writing library : LAME3.90.
Encoding settings : -m j -V 4 -q 2 -lowpass 17.6 –abr 128