Telecharger Entretien avec un vampire [BLURAY 720p] French

Qualité BLURAY 720p | MULTiLANGUES

Entretien avec un vampire

Entretien avec un vampire

Entretien avec un vampire

Origine du film : Américain
Réalisateur : Neil Jordan
Acteurs : Tom Cruise, Brad Pitt, Stephen Rea
Genre : Fantastique, Drame, Epouvante-horreur
Durée : 2h3min
Date de sortie : 21 décembre 1994
Année de production : 1994
Titre Original : Interview with the Vampire
Distribué par : Warner Bros. France
Note presse : Entretien avec un vampire 3,2/5
Note spectateurs : Entretien avec un vampire

; »>4/5 (21 627)
Bande annonce :

e242620e1ea4de181a3cab17e6c0718d

18817370″>Cliquez-ici pour voir la bande annonce e242620e1ea4de181a3cab17e6c0718d »> 18817370

e242620e1ea4de181a3cab17e6c0718d

Entretien avec un vampire

San Francisco dans les années 90. Un jeune journaliste, Malloy, s’entretient dans une chambre avec un homme élégant, à l’allure aristocratique et au visage blafard, Louis, qui lui fait de bien étranges confidences. Malloy, subjugué par la séduction de son interlocuteur lui demande, à l’aube, de le faire pénétrer dans son monde, celui des vampires.
98647″ style= »display:inline; »>

Entretien avec un vampire

Format : MKV
Découpé avec : Winrar

Entretien avec un vampire

Entretien.Avec.Un.Vampire.1994.MULTi.720p.BluRay.x264.AC3.DTS-Gh

(4912 Mo)

[Liens Interchangeables entre hébergeurs: 4x 1000 Mo + 1x 912 Mo]

Uptobox
Télécharger

Uplea
Télécharger

1fichier
Télécharger

Uploaded
Télécharger

Rapidgator
Télécharger

TurboBit
Télécharger

[ Liens Premium ]

Uptobox
Télécharger

Uplea
Télécharger

1fichier
Télécharger

Uploaded
Télécharger

TurboBit
Télécharger

NFO :

Afficher / Masquer le texte 42b68affb8df0d6ed1628f3e085bb909″ class= »text_spoiler » style= »display:none; »>Entretien.Avec.Un.Vampire.1994.MULTi.720p.BluRay.x264.AC3.DTS-Gh.zone-telechargement.com.mkv
Format : Matroska
Format version : Version 4 / Version 2
File size : 4.80 GiB
Duration : 2h 2mn
Overall bit rate : 5 600 Kbps
Movie name : Entretien Avec Un Vampire 1994 MULTi 720p BluRay x264 AC3 DTS-Gh
Encoded date : UTC 2014-09-17 11:55:23
Writing application : mkvmerge v7.2.0 (‘On Every Street’) 64bit built on Sep 13 2014 15:22:42
Writing library : libebml v1.3.0 + libmatroska v1.4.1
DURATION : 02:01:25.903000000
NUMBER_OF_FRAMES : 1130
NUMBER_OF_BYTES : 32786
_STATISTICS_WRITING_APP : mkvmerge v7.2.0 (‘On Every Street’) 64bit built on Sep 13 2014 15:22:42
_STATISTICS_WRITING_DATE_UTC : 2014-09-17 11:55:23
_STATISTICS_TAGS : BPS DURATION NUMBER_OF_FRAMES NUMBER_OF_BYTES

Video
ID : 1
Format : AVC
Format/Info : Advanced Video Codec
Format profile : [email protected]
Format settings, CABAC : Yes
Format settings, ReFrames : 8 frames
Codec ID : V_MPEG4/ISO/AVC
Duration : 2h 2mn
Bit rate : 3 339 Kbps
Width : 1 278 pixels
Height : 720 pixels
Display aspect ratio : 16:9
Frame rate mode : Constant
Frame rate : 23.976 fps
Color space : YUV
Chroma subsampling : 4:2:0
Bit depth : 8 bits
Scan type : Progressive
Bits/(Pixel*Frame) : 0.151
Stream size : 2.86 GiB (60%)
Writing library : x264 core 142 r2389 956c8d8
Encoding settings : cabac=1 / ref=8 / deblock=1:-3:-3 / analyse=0x3:0x133 / me=umh / subme=10 / psy=1 / psy_rd=1.00:0.04 / mixed_ref=1 / me_range=64 / chroma_me=1 / trellis=2 / 8x8dct=1 / cqm=0 / deadzone=6,6 / fast_pskip=0 / chroma_qp_offset=-3 / threads=6 / lookahead_threads=1 / sliced_threads=0 / nr=0 / decimate=0 / interlaced=0 / bluray_compat=0 / constrained_intra=0 / bframes=6 / b_pyramid=2 / b_adapt=2 / b_bias=0 / direct=3 / weightb=1 / open_gop=1 / weightp=2 / keyint=240 / keyint_min=24 / scenecut=40 / intra_refresh=0 / rc_lookahead=240 / rc=crf / mbtree=1 / crf=19.0 / qcomp=0.80 / qpmin=10 / qpmax=45 / qpstep=4 / vbv_maxrate=40000 / vbv_bufsize=40000 / crf_max=0.0 / nal_hrd=none / filler=0 / ip_ratio=1.10 / aq=2:0.80
Language : English
Default : Yes
Forced : No
Color primaries : BT.709
Transfer characteristics : BT.709
Matrix coefficients : BT.709
DURATION : 02:02:33.347000000
NUMBER_OF_FRAMES : 176304
NUMBER_OF_BYTES : 3155096595
_STATISTICS_WRITING_APP : mkvmerge v7.2.0 (‘On Every Street’) 64bit built on Sep 13 2014 15:22:42
_STATISTICS_WRITING_DATE_UTC : 2014-09-17 11:55:23
_STATISTICS_TAGS : BPS DURATION NUMBER_OF_FRAMES NUMBER_OF_BYTES

Audio #1
ID : 2
Format : AC-3
Format/Info : Audio Coding 3
Mode extension : CM (complete main)
Format settings, Endianness : Big
Codec ID : A_AC3
Duration : 2h 2mn
Bit rate mode : Constant
Bit rate : 640 Kbps
Channel count : 6 channels
Channel positions : Front: L C R, Side: L R, LFE
Sampling rate : 48.0 KHz
Bit depth : 16 bits
Compression mode : Lossy
Stream size : 561 MiB (11%)
Language : French
Default : Yes
Forced : No
DURATION : 02:02:33.376000000
NUMBER_OF_FRAMES : 229793
NUMBER_OF_BYTES : 588270080
_STATISTICS_WRITING_APP : mkvmerge v7.2.0 (‘On Every Street’) 64bit built on Sep 13 2014 15:22:42
_STATISTICS_WRITING_DATE_UTC : 2014-09-17 11:55:23
_STATISTICS_TAGS : BPS DURATION NUMBER_OF_FRAMES NUMBER_OF_BYTES

Audio #2
ID : 3
Format : DTS
Format/Info : Digital Theater Systems
Mode : 16
Format settings, Endianness : Big
Codec ID : A_DTS
Duration : 2h 2mn
Bit rate mode : Constant
Bit rate : 1 509 Kbps
Channel count : 6 channels
Channel positions : Front: L C R, Side: L R, LFE
Sampling rate : 48.0 KHz
Bit depth : 24 bits
Compression mode : Lossy
Stream size : 1.29 GiB (27%)
Language : English
Default : No
Forced : No
DURATION : 02:02:33.345000000
NUMBER_OF_FRAMES : 689376
NUMBER_OF_BYTES : 1387024512
_STATISTICS_WRITING_APP : mkvmerge v7.2.0 (‘On Every Street’) 64bit built on Sep 13 2014 15:22:42
_STATISTICS_WRITING_DATE_UTC : 2014-09-17 11:55:23
_STATISTICS_TAGS : BPS DURATION NUMBER_OF_FRAMES NUMBER_OF_BYTES

Text #1
ID : 4
Format : UTF-8
Codec ID : S_TEXT/UTF8
Codec ID/Info : UTF-8 Plain Text
Language : French
Default : Yes
Forced : Yes
DURATION : 02:01:35.904000000
NUMBER_OF_FRAMES : 2259
NUMBER_OF_BYTES : 8109851
_STATISTICS_WRITING_APP : mkvmerge v7.2.0 (‘On Every Street’) 64bit built on Sep 13 2014 15:22:42
_STATISTICS_WRITING_DATE_UTC : 2014-09-17 11:55:23
_STATISTICS_TAGS : BPS DURATION NUMBER_OF_FRAMES NUMBER_OF_BYTES

Text #2
ID : 5
Format : UTF-8
Codec ID : S_TEXT/UTF8
Codec ID/Info : UTF-8 Plain Text
Language : French
Default : No
Forced : No
DURATION : 01:59:31.362000000
NUMBER_OF_FRAMES : 2664
NUMBER_OF_BYTES : 9879322
_STATISTICS_WRITING_APP : mkvmerge v7.2.0 (‘On Every Street’) 64bit built on Sep 13 2014 15:22:42
_STATISTICS_WRITING_DATE_UTC : 2014-09-17 11:55:23
_STATISTICS_TAGS : BPS DURATION NUMBER_OF_FRAMES NUMBER_OF_BYTES

Text #3
ID : 6
Format : PGS
Muxing mode : zlib
Codec ID : S_HDMV/PGS
Codec ID/Info : The same subtitle format used on BDs/HD-DVDs
Language : French
Default : No
Forced : No

Text #4
ID : 7
Format : PGS
Muxing mode : zlib
Codec ID : S_HDMV/PGS
Codec ID/Info : The same subtitle format used on BDs/HD-DVDs
Language : English
Default : No
Forced : No

Jeux Gratuit
15354131_1854970838071206_1069261547_o.png