Télécharger Erin Brockovich, seule contre tous Blu-Ray 1080p/720p FRENCH

Qualité BLURAY 720p | MULTiLANGUES | son DTS

Erin Brockovich, seule contre tous

Erin Brockovich, seule contre tous

Origine du film : Américain
Réalisateur : Steven Soderbergh
Acteurs : Julia Roberts, Albert Finney, Aaron Eckhart
Genre : Comédie dramatique, Biopic
Durée : 2h11min
Date de sortie : 26 avril 2000
Année de production : 2000
Titre Original : Erin Brockovich
Note presse : Erin Brockovich, seule contre tous 4,1/5
Note spectateurs : Erin Brockovich, seule contre tous 3,7/5 (12 721)
Bande annonce :

b52ae7a38f0f8cdc06a70f75acd1f740

19477122″>Cliquez-ici pour voir la bande annonce b52ae7a38f0f8cdc06a70f75acd1f740″> 19477122

b52ae7a38f0f8cdc06a70f75acd1f740

Erin Brockovich, seule contre tous

Mère élevant seule ses trois enfants, Erin Brockovich n’avait vraiment pas besoin d’un accident de voiture. D’autant que le responsable sort du tribunal financièrement indemne. Obligée de trouver rapidement un travail pour couvrir tous ses frais medicaux et de justice, Erin obtient de son avocat de l’employer comme archiviste dans son cabinet. Son allure et son franc-parler ne lui valent pas des débuts faciles mais elle apprend vite. En classant des documents, Erin déterre une affaire louche d’empoisonnement et décide de se jeter dans la bataille.
103369″ style= »display:inline; »>

Erin Brockovich, seule contre tous

Format : MKV
Découpé avec : Winrar

Erin Brockovich, seule contre tous

Erin.Brockovich.2000.MULTi.720p.BluRay.x264.DTS-GAIA

(8838 Mo)

[Liens Interchangeables entre hébergeurs: 8x 1000 Mo + 1x 838 Mo]

Uptobox
Télécharger

Uplea
Télécharger

1fichier
Télécharger

Uploaded
Télécharger

Rapidgator
Télécharger

TurboBit
Télécharger

[ Liens Premium ]

Uptobox
Télécharger

Uplea
Télécharger

1fichier
Télécharger

Uploaded
Télécharger

TurboBit
Télécharger

NFO :

Afficher / Masquer le texte 67233b4b0e0498d6ac16ce66f6e34d48″ class= »text_spoiler » style= »display:none; »>Erin.Brockovich.2000.MULTi.720p.BluRay.x264.DTS-GAIA.zone-telechargement.com.mkv
Format : Matroska
Format version : Version 1
File size : 8.63 GiB
Duration : 2h 11mn
Overall bit rate : 9 418 Kbps
Encoded date : UTC 2009-03-18 19:23:11
Writing application : mkvmerge v2.2.0 (‘Turn It On Again’) built on Mar 4 2008 12:58:26
Writing library : libebml v0.7.7 + libmatroska v0.8.1

Video
ID : 1
Format : AVC
Format/Info : Advanced Video Codec
Format profile : [email protected]
Format settings, CABAC : Yes
Format settings, ReFrames : 4 frames
Codec ID : V_MPEG4/ISO/AVC
Duration : 2h 11mn
Bit rate : 6 395 Kbps
Width : 1 280 pixels
Height : 720 pixels
Display aspect ratio : 16:9
Frame rate mode : Constant
Frame rate : 23.976 fps
Color space : YUV
Chroma subsampling : 4:2:0
Bit depth : 8 bits
Scan type : Progressive
Bits/(Pixel*Frame) : 0.289
Stream size : 5.69 GiB (66%)
Title : Erin Brockovich 2000 720p BluRay DTS x264-GAÏA
Writing library : x264 core 67 r1127M 8d82fec
Encoding settings : cabac=1 / ref=4 / deblock=1:-3:-3 / analyse=0x3:0x113 / me=umh / subme=9 / psy_rd=0.7:0.7 / mixed_ref=1 / me_range=24 / chroma_me=1 / trellis=2 / 8x8dct=1 / cqm=0 / deadzone=21,11 / chroma_qp_offset=-4 / threads=3 / nr=0 / decimate=1 / mbaff=0 / bframes=3 / b_pyramid=1 / b_adapt=2 / b_bias=0 / direct=3 / wpredb=1 / keyint=250 / keyint_min=25 / scenecut=40 / rc=2pass / bitrate=6395 / ratetol=1.0 / qcomp=0.60 / qpmin=10 / qpmax=51 / qpstep=4 / cplxblur=20.0 / qblur=0.5 / vbv_maxrate=50000 / vbv_bufsize=50000 / ip_ratio=1.40 / pb_ratio=1.30 / aq=1:1.00
Language : English
Default : Yes
Forced : No

Audio #1
ID : 2
Format : DTS
Format/Info : Digital Theater Systems
Mode : 16
Format settings, Endianness : Big
Codec ID : A_DTS
Duration : 2h 11mn
Bit rate mode : Constant
Bit rate : 1 510 Kbps
Channel(s) : 6 channels
Channel positions : Front: L C R, Side: L R, LFE
Sampling rate : 48.0 KHz
Bit depth : 24 bits
Compression mode : Lossy
Stream size : 1.38 GiB (16%)
Title : DTS 5.1 @ 1536 kbps
Language : French
Default : Yes
Forced : No

Audio #2
ID : 3
Format : DTS
Format/Info : Digital Theater Systems
Mode : 16
Format settings, Endianness : Big
Codec ID : A_DTS
Duration : 2h 11mn
Bit rate mode : Constant
Bit rate : 1 510 Kbps
Channel(s) : 6 channels
Channel positions : Front: L C R, Side: L R, LFE
Sampling rate : 48.0 KHz
Bit depth : 24 bits
Compression mode : Lossy
Stream size : 1.38 GiB (16%)
Title : DTS 5.1 @ 1536 kbps
Language : English
Default : No
Forced : No

Text
ID : 4
Format : UTF-8
Codec ID : S_TEXT/UTF8
Codec ID/Info : UTF-8 Plain Text
Title : French
Language : French
Default : Yes
Forced : No

Jeux Gratuit
15354131_1854970838071206_1069261547_o.png