Telecharger Et pour quelques dollars de plus [DVDRiP] French

BLURAY 1080p | MULTiLANGUES

Et pour quelques dollars de plus

Et pour quelques dollars de plus

Et pour quelques dollars de plus

Origine du film : Italien, espagnol, ouest-allemand
Réalisateur : Sergio Leone
Acteurs : Clint Eastwood, Lee Van Cleef, Gian Maria Volonte
Genre : Western, Action
Durée : 2h 10min
Date de sortie : octobre 1966
Année de production : 1965
Titre Original : Per qualche dollari di piu
Note presse : Et pour quelques dollars de plus 4,0/5
Note spectateurs : Et pour quelques dollars de plus 4,2/5 (7730)

Et pour quelques dollars de plus

 » L’indien « , bandit cruel et fou, s’est évadé de prison. Il se prépare à attaquer la banque d’El Paso, la mieux gardée de tout l’Ouest, avec une quinzaine d’autres malfaiteurs. Le  » Manchot  » et le Colonel Douglas Mortimer, deux chasseurs de primes concurrents, décident, après une confrontation tendue, de faire finalement équipe pour arrêter les bandits. Mais leurs motivations ne sont pas forcément les mêmes… 16490″ style= »display:inline; »>

Et pour quelques dollars de plus

Qualité : BLURAY 1080p
Format : MKV
Langue : Multilangage (Italien DTS 1.0 @ 448 Kbps, Anglais AC3 @ 448 Kbps , Français AC3 @ 448 Kbps)
Sous-titre : Anglais, Français, Français Forçé
Sous-titre : Multi
Découpé avec : Winrar
Nombre de fichiers : 10 Fichiers
Taille des fichiers : 1000 Mo + 728 Mo
Taille totale : 9728 Mo

Et pour quelques dollars de plus

[10 Liens Interchangeables : 9 x 1000 Mo + 1 x 728 Mo]

Et Pour Quelques Dollars de Plus_Multi Dts-Ac3_1080p (9,7 Go)

1fichier
Télécharger

Uptobox
Télécharger

Free
Télécharger

Uploaded
Télécharger

Rapidgator
Télécharger

TurboBit
Télécharger

[1 Lien PREMIUM : 1 x 9.50 GB]

1fichier
Télécharger

Uptobox
Télécharger

TurboBit
Télécharger

[2 Liens PREMIUM]

Uploaded
Partie 1
Partie 2

NFO :

Afficher / Masquer le texte 409abe49d0bab8bdb225868369cdc8b4″ class= »text_spoiler » style= »display:none; »> ■General

Complete name : E:FilmsEt.Pour.Quelques.Dollars.De.Plus.1965.1080p.MULTi.AC3.DTS.x264-HDicTs.mkv

Format : Matroska

Format version : Version 2

File size : 9.50 GiB

Duration : 2h 12mn

Overall bit rate : 10.3 Mbps

Encoded date : UTC 2010-03-02 23:59:37

Writing application : mkvmerge v3.0.0 (‘Hang up your Hang-Ups’) built on Dec 12 2009 16:11:51

Writing library : libebml v0.7.8 + libmatroska v0.8.1

Attachment : Yes

Video

ID : 1

Format : AVC

Format/Info : Advanced Video Codec

Format profile : [email protected]

Format settings, CABAC : Yes

Format settings, ReFrames : 5 frames

Codec ID : V_MPEG4/ISO/AVC

Duration : 2h 12mn

Bit rate : 9 000 Kbps

Width : 1 920 pixels

Height : 816 pixels

Display aspect ratio : 2.35:1

Frame rate : 23.976 fps

Color space : YUV

Chroma subsampling : 4:2:0

Bit depth : 8 bits

Scan type : Progressive

Bits/(Pixel*Frame) : 0.240

Stream size : 8.13 GiB (86%)

Title : Et Pour Quelques Dollars De Plus 1080p MULTi AC3 DTS x264

Writing library : x264 core 79 r1332 70f8869

Encoding settings : cabac=1 / ref=5 / deblock=1:-3:-3 / analyse=0x3:0x113 / me=umh / subme=10 / psy=1 / psy_rd=1.0:0.0 / mixed_ref=1 / me_range=32 / chroma_me=1 / trellis=2 / 8x8dct=1 / cqm=0 / deadzone=21,11 / chroma_qp_offset=-2 / threads=6 / nr=0 / decimate=0 / mbaff=0 / constrained_intra=0 / bframes=3 / b_pyramid=0 / b_adapt=2 / b_bias=0 / direct=3 / wpredb=1 / wpredp=2 / keyint=250 / keyint_min=25 / scenecut=40 / rc_lookahead=40 / rc=2pass / mbtree=1 / bitrate=9000 / ratetol=1.0 / qcomp=0.60 / qpmin=10 / qpmax=51 / qpstep=4 / cplxblur=20.0 / qblur=0.5 / vbv_maxrate=50000 / vbv_bufsize=50000 / ip_ratio=1.40 / aq=1:1.00

Language : English

Audio #1

ID : 2

Format : AC-3

Format/Info : Audio Coding 3

Mode extension : CM (complete main)

Codec ID : A_AC3

Duration : 2h 12mn

Bit rate mode : Constant

Bit rate : 448 Kbps

Channel(s) : 6 channels

Channel positions : Front: L C R, Side: L R, LFE

Sampling rate : 48.0 KHz

Bit depth : 16 bits

Compression mode : Lossy

Stream size : 424 MiB (4%)

Title : Gaulois AC3 @ 448 Kbps

Language : French

Audio #2

ID : 3

Format : AC-3

Format/Info : Audio Coding 3

Mode extension : CM (complete main)

Codec ID : A_AC3

Duration : 2h 12mn

Bit rate mode : Constant

Bit rate : 448 Kbps

Channel(s) : 6 channels

Channel positions : Front: L C R, Side: L R, LFE

Sampling rate : 48.0 KHz

Bit depth : 16 bits

Compression mode : Lossy

Stream size : 424 MiB (4%)

Title : English AC3 @ 448 Kbps

Language : English

Audio #3

ID : 4

Format : DTS

Format/Info : Digital Theater Systems

Codec ID : A_DTS

Duration : 2h 12mn

Bit rate mode : Constant

Bit rate : 384 Kbps

Channel(s) : 1 channel

Channel positions : Front: C

Sampling rate : 48.0 KHz

Bit depth : 24 bits

Compression mode : Lossy

Stream size : 363 MiB (4%)

Title : Italien DTS 1.0 @ 384 Kbps

Language : Italian

Text #1

ID : 5

Format : UTF-8

Codec ID : S_TEXT/UTF8

Codec ID/Info : UTF-8 Plain Text

Title : Franτais Forcé

Language : French

Text #2

ID : 6

Format : UTF-8

Codec ID : S_TEXT/UTF8

Codec ID/Info : UTF-8 Plain Text

Title : Franτais

Language : French

Text #3

ID : 7

Format : UTF-8

Codec ID : S_TEXT/UTF8

Codec ID/Info : UTF-8 Plain Text

Title : English

Language : English

Jeux Gratuit
15354131_1854970838071206_1069261547_o.png