Telecharger Evasion [BLURAY 720p] French

(TRUEFRENCH = Vraie voix française)

BLURAY 720p | TRUEFRENCH | DTS

Evasion

Evasion

Evasion

Origine du film : Américain
Réalisateur : Mikael Hafstrom
Acteurs : Sylvester Stallone, Arnold Schwarzenegger, Jim Caviezel
Genre : Thriller, Action
Durée : 1h56min
Date de sortie : 13 novembre 2013
Année de production : 2013
Titre Original : Escape Plan
Distribué par : SND
Note presse : Evasion 1,6/5
Note spectateurs : Evasion

; »>3,7/5 (2 335)
Bande annonce :

2ef93a3ec2a768159945ed42b130e300

19537496″>Cliquez-ici pour voir la bande annonce 2ef93a3ec2a768159945ed42b130e300″> 19537496

2ef93a3ec2a768159945ed42b130e300

Evasion

Ray Breslin est un ingénieur spécialisé dans la conception de prisons ultrasécurisées. Il teste lui-même l’efficacité de ses bâtiments en se faisant enfermer puis en s’évadant. Contacté par une société privée souhaitant tester un concept révolutionnaire de prison hi-tech, il se retrouve prisonnier. Piégé dans ce complexe ultra-moderne, harcelé par un directeur impitoyable et son gardien corrompu, Ray découvre une conspiration pour le faire disparaître à jamais. Sa seule chance de survie : une alliance avec Emil Rottmayer, un co-détenu ayant lui aussi un secret. Pour avoir une chance de s’évader, ils vont d’abord devoir se faire confiance.
48634″ style= »display:inline; »>

Evasion

Qualité : BLURAY 720p
Format : MKV
Langue : Français
Sous-titre : Français
Nombre de fichiers : 6 Fichiers
Taille des fichiers : 1000 Mo + 590 Mo

Evasion

[6 Liens Interchangeables : 5 x 1000 Mo + 1 x 590 Mo]

Escape.Plan.2013.TRUEFRENCH.720p.BluRay.x264-ROUGH ( 5590 Mo)

Uptobox
Télécharger

1fichier
Télécharger

Uploaded
Télécharger

Rapidgator
Télécharger

TurboBit
Télécharger

[1 Lien PREMIUM : 1 x 5.45 GB]

Uptobox
Télécharger

1fichier
Télécharger

TurboBit
Télécharger

[2 Liens PREMIUM]

Uploaded
Partie 1
Partie 2

NFO :

Afficher / Masquer le texte 3189e0d51af9886f8cca3b20a5cc571b » class= »text_spoiler » style= »display:none; »>General
Unique ID : 252589830406507951953915967739808373345 (0xBE07082439C09F8290187B19DFA2DA61)
Complete name : escape.plan.2013.truefrench.720p.bluray.x264-rough.mkv
Format : Matroska
Format version : Version 4 / Version 2
File size : 5.46 GiB
Duration : 1h 55mn
Overall bit rate : 6 750 Kbps
Encoded date : UTC 2014-03-16 09:38:50
Writing application : mkvmerge v6.8.0 (‘Theme for Great Cities’) 64bit built on Mar 2 2014 21:34:26
Writing library : libebml v1.3.0 + libmatroska v1.4.1

Video
ID : 1
Format : AVC
Format/Info : Advanced Video Codec
Format profile : [email protected]
Format settings, CABAC : Yes
Format settings, ReFrames : 5 frames
Codec ID : V_MPEG4/ISO/AVC
Duration : 1h 55mn
Bit rate : 5 245 Kbps
Width : 1 280 pixels
Height : 536 pixels
Display aspect ratio : 2.40:1
Frame rate mode : Constant
Frame rate : 24.000 fps
Color space : YUV
Chroma subsampling : 4:2:0
Bit depth : 8 bits
Scan type : Progressive
Bits/(Pixel*Frame) : 0.319
Stream size : 4.13 GiB (76%)
Writing library : x264 core 142 r2409 d6b4e63
Encoding settings : cabac=1 / ref=5 / deblock=1:0:0 / analyse=0x3:0x113 / me=umh / subme=8 / psy=1 / psy_rd=1.00:0.00 / mixed_ref=1 / me_range=16 / chroma_me=1 / trellis=1 / 8x8dct=1 / cqm=0 / deadzone=21,11 / fast_pskip=0 / chroma_qp_offset=-2 / threads=12 / lookahead_threads=2 / sliced_threads=0 / nr=0 / decimate=1 / interlaced=0 / bluray_compat=0 / constrained_intra=0 / bframes=3 / b_pyramid=2 / b_adapt=1 / b_bias=0 / direct=1 / weightb=1 / open_gop=0 / weightp=2 / keyint=250 / keyint_min=24 / scenecut=40 / intra_refresh=0 / rc_lookahead=40 / rc=2pass / mbtree=1 / bitrate=5245 / ratetol=1.0 / qcomp=0.60 / qpmin=0 / qpmax=69 / qpstep=4 / cplxblur=20.0 / qblur=0.5 / ip_ratio=1.40 / aq=1:1.00
Language : English
Default : Yes
Forced : No

Audio
ID : 2
Format : DTS
Format/Info : Digital Theater Systems
Mode : 16
Format settings, Endianness : Big
Codec ID : A_DTS
Duration : 1h 55mn
Bit rate mode : Constant
Bit rate : 1 509 Kbps
Channel(s) : 6 channels
Channel positions : Front: L C R, Side: L R, LFE
Sampling rate : 48.0 KHz
Bit depth : 24 bits
Compression mode : Lossy
Stream size : 1.22 GiB (22%)
Title : DTS 5.1
Language : French
Default : Yes
Forced : No

Text
ID : 3
Format : UTF-8
Codec ID : S_TEXT/UTF8
Codec ID/Info : UTF-8 Plain Text
Title : Forced
Language : French
Default : Yes
Forced : Yes

Menu
00:00:00.000 : en:00:00:00.000
00:10:09.042 : en:00:10:09.042
00:20:08.500 : en:00:20:08.500
00:28:07.458 : en:00:28:07.458
00:39:19.167 : en:00:39:19.167
00:45:46.167 : en:00:45:46.167
00:57:50.958 : en:00:57:50.958
01:08:16.625 : en:01:08:16.625
01:17:17.333 : en:01:17:17.333
01:27:48.417 : en:01:27:48.417
01:36:18.292 : en:01:36:18.292
01:47:26.083 : en:01:47:26.083